<?xml version="1.0" standalone="no"?>
<!DOCTYPE svg PUBLIC "-//W3C//DTD SVG 1.1//EN" "http://www.w3.org/Graphics/SVG/1.1/DTD/svg11.dtd" >
<svg xmlns="http://www.w3.org/2000/svg" xmlns:xlink="http://www.w3.org/1999/xlink" version="1.1">
<metadata>
Created by FontForge 20170731 at Thu Jan  6 10:25:20 2022
 By Aleksey,,,
Copyright (c) 2018 by Eduardo Manso. All rights reserved.
</metadata>
<defs>
<font id="SteradianRegularItalic" horiz-adv-x="1353" >
  <font-face 
    font-family="Steradian Regular Italic"
    font-weight="400"
    font-style="italic"
    font-stretch="normal"
    units-per-em="2048"
    panose-1="0 0 0 0 0 0 0 0 0 0"
    ascent="1638"
    descent="-410"
    x-height="1034"
    cap-height="1440"
    bbox="-526 -545 2824 1952"
    underline-thickness="73"
    underline-position="-400"
    slope="-8"
    unicode-range="U+000D-FF19"
  />
<missing-glyph horiz-adv-x="1779" 
d="M1591 721l-2 -2q0 -299 -211 -510t-506 -211q-297 0 -510 213q-210 210 -210 510q0 297 213 510q211 211 509 211q295 0 506 -211t211 -510zM193 719l-3 -4q0 -278 201 -479q199 -199 479 -199q279 0 480 201q198 198 198 479t-198 479q-201 201 -480 201
q-280 0 -479 -199q-198 -198 -198 -479zM1206 430h-112l-230 227l-227 -225h-113l283 283l-277 276h113l221 -219l223 223h115l-280 -280z" />
    <glyph glyph-name=".notdef" horiz-adv-x="1779" 
d="M1591 721l-2 -2q0 -299 -211 -510t-506 -211q-297 0 -510 213q-210 210 -210 510q0 297 213 510q211 211 509 211q295 0 506 -211t211 -510zM193 719l-3 -4q0 -278 201 -479q199 -199 479 -199q279 0 480 201q198 198 198 479t-198 479q-201 201 -480 201
q-280 0 -479 -199q-198 -198 -198 -479zM1206 430h-112l-230 227l-227 -225h-113l283 283l-277 276h113l221 -219l223 223h115l-280 -280z" />
    <glyph glyph-name=".null" horiz-adv-x="0" 
 />
    <glyph glyph-name="nonmarkingreturn" horiz-adv-x="682" 
 />
    <glyph glyph-name="NULL" horiz-adv-x="0" 
 />
    <glyph glyph-name="NULL" horiz-adv-x="0" 
 />
    <glyph glyph-name="CR" unicode="&#xd;" horiz-adv-x="514" 
 />
    <glyph glyph-name="space" unicode=" " horiz-adv-x="514" 
 />
    <glyph glyph-name="exclam" unicode="!" horiz-adv-x="559" 
d="M332 449h-125l29 481l73 510h199l-74 -510zM362 113l-2 -7q0 -57 -41 -98q-39 -39 -102 -39q-57 0 -98 41q-39 39 -39 99q0 63 39 102q41 41 100 41q64 0 103 -39q40 -40 40 -100z" />
    <glyph glyph-name="quotedbl" unicode="&#x22;" horiz-adv-x="718" 
d="M328 940h-117l25 446l8 54h192l-8 -54zM618 940h-116l24 446l9 54h192l-8 -54z" />
    <glyph glyph-name="numbersign" unicode="#" horiz-adv-x="1333" 
d="M1163 584l-59 -162h-221l-129 -332h-172l129 332h-267l-129 -332h-172l129 332h-217l60 162h221l106 270h-219l62 160h219l131 334h172l-131 -334h266l131 334h172l-131 -334h219l-61 -160h-219l-107 -270h217zM614 854l-106 -270h266l107 270h-267z" />
    <glyph glyph-name="dollar" unicode="$" horiz-adv-x="1134" 
d="M551 -242l-193 -53l37 283q-170 47 -254 168q-84 118 -75 305h200q-9 -152 72 -236q79 -82 233 -82q119 0 197 72q74 71 74 191q0 43 -19 83q-19 39 -51 64q-24 17 -49 31q-16 9 -105 49l-139 57q-158 65 -227 152q-68 86 -68 213q0 174 115 286q112 112 301 121l31 213
l194 43l-41 -272q157 -39 232 -150q81 -116 78 -282h-197q3 136 -68 207t-198 71q-113 0 -180 -61q-68 -62 -68 -162q0 -72 39 -117q38 -44 160 -94l127 -51q195 -80 266 -166q69 -81 69 -215q0 -205 -129 -328t-335 -123z" />
    <glyph glyph-name="percent" unicode="%" horiz-adv-x="1607" 
d="M846 1116l2 4q0 -143 -98 -241q-99 -99 -248 -99q-143 0 -248 97q-98 94 -98 239q0 144 98 238q104 96 246 96q144 0 248 -96q98 -94 98 -238zM1360 1444h180l-1233 -1440h-180zM313 1118h2q0 -79 56 -135q55 -55 135 -55q83 0 135 55q53 59 53 135q0 80 -55 135
q-56 56 -135 56t-135 -56t-56 -135zM1511 330q0 -146 -98 -240q-104 -96 -246 -96q-143 0 -247 96q-99 95 -99 240q0 144 99 239q105 97 247 97q141 0 246 -97q98 -94 98 -239zM979 330q0 -82 53 -135q54 -54 135 -54q82 0 136 54q53 53 53 135q0 76 -53 135q-52 55 -134 55
q-80 0 -135 -55t-55 -135z" />
    <glyph glyph-name="ampersand" unicode="&#x26;" horiz-adv-x="1394" 
d="M934 461l248 338h217l-365 -488l232 -315h-219l-125 172q-89 -99 -195 -148q-104 -49 -229 -49q-190 0 -316 105q-125 104 -125 268q0 163 105 283t293 182q-58 82 -86 158q-27 67 -27 139q0 148 115 254q113 104 276 104q150 0 244 -82q96 -84 96 -208q0 -137 -92 -240
q-91 -102 -272 -166zM723 1305l-2 2q-88 0 -148 -60q-57 -57 -57 -145q0 -34 23 -92q24 -56 77 -131q156 63 215 122q62 62 62 146q0 73 -45 115q-46 43 -125 43zM248 369l-4 6q0 -102 75 -168q77 -68 191 -68q84 0 160 43q78 45 145 129l-283 385q-149 -61 -217 -141
q-67 -79 -67 -186z" />
    <glyph glyph-name="quotesingle" unicode="'" horiz-adv-x="428" 
d="M328 940h-117l25 446l8 54h192l-8 -54z" />
    <glyph glyph-name="parenleft" unicode="(" horiz-adv-x="606" 
d="M430 -287l-188 -8q-66 147 -107 330q-37 173 -37 366q0 332 109 664q109 328 307 590h199q-212 -286 -320 -602q-106 -308 -106 -645q0 -190 37 -363q39 -190 106 -332z" />
    <glyph glyph-name="parenright" unicode=")" horiz-adv-x="608" 
d="M223 1659l183 4q73 -154 108 -328q37 -173 37 -364q0 -344 -107 -664q-109 -328 -307 -590h-198q210 283 319 602q109 322 109 646q0 189 -37 362q-38 186 -107 332z" />
    <glyph glyph-name="asterisk" unicode="*" horiz-adv-x="937" 
d="M342 713l-131 98l217 225l-266 74l84 162l243 -113l19 281h184l-57 -273l270 105l35 -164l-289 -74l154 -225l-154 -100l-114 256z" />
    <glyph glyph-name="plus" unicode="+" horiz-adv-x="1167" 
d="M686 256h-149v385h-387v152h387v385h149v-385h387v-152h-387v-385z" />
    <glyph glyph-name="comma" unicode="," horiz-adv-x="505" 
d="M127 -324l-145 -8l165 307q-42 15 -65 52q-25 39 -25 79q0 62 41 103t103 41q63 0 102 -39q41 -41 41 -98q0 -17 -6 -35q-2 -12 -19 -45z" />
    <glyph glyph-name="hyphen" unicode="-" horiz-adv-x="782" 
d="M147 637h492v-180h-492v180z" />
    <glyph glyph-name="period" unicode="." horiz-adv-x="491" 
d="M336 113l-2 -7q0 -57 -41 -98q-39 -39 -103 -39q-57 0 -98 41q-39 39 -39 99q0 63 39 102q41 41 101 41q63 0 102 -39q41 -41 41 -100z" />
    <glyph glyph-name="slash" unicode="/" horiz-adv-x="825" 
d="M717 1659h198l-759 -1946h-199z" />
    <glyph glyph-name="zero" unicode="0" horiz-adv-x="1286" 
d="M614 -25l-4 -2q-248 0 -383 156q-134 155 -100 401l63 447q34 229 179 356t358 127q255 0 389 -155q136 -157 101 -406l-62 -440q-35 -234 -178 -359t-363 -125zM717 1276h-8q-134 0 -222 -82q-89 -83 -110 -233l-62 -441q-20 -159 60 -262q79 -98 239 -98q138 0 228 84
q89 83 110 233l62 438q21 164 -58 263q-79 98 -239 98z" />
    <glyph glyph-name="one" unicode="1" horiz-adv-x="712" 
d="M451 0h-197l178 1260h-309l70 180h458z" />
    <glyph glyph-name="two" unicode="2" horiz-adv-x="1216" 
d="M1165 1073h-2q0 -139 -67 -252q-67 -112 -256 -264l-478 -377h715l-26 -180h-1012l22 174l672 535q118 93 172 178q51 80 51 172q0 98 -71 160q-70 61 -189 61q-125 0 -221 -84q-94 -82 -115 -215h-202q27 214 178 350q150 135 369 135q203 0 331 -110q129 -111 129 -283
z" />
    <glyph glyph-name="three" unicode="3" horiz-adv-x="1191" 
d="M567 -25h-2q-217 0 -356 121q-138 120 -141 314h196q3 -107 86 -181q82 -73 213 -73t221 84q88 82 88 202q0 107 -71 172q-72 66 -191 66h-151l20 145h156q127 0 203 70q80 71 80 174q0 94 -70 152q-71 59 -184 59q-110 0 -185 -63q-78 -66 -96 -166h-199q24 178 162 292
q138 117 332 117q201 0 319 -100q121 -103 121 -254q0 -125 -67 -213q-68 -89 -193 -135q104 -46 158 -131q55 -85 55 -201q0 -188 -141 -320q-137 -131 -363 -131z" />
    <glyph glyph-name="four" unicode="4" horiz-adv-x="1196" 
d="M45 479l719 961h231l-716 -953h512l47 324l198 45l-53 -369h154l-25 -176h-156l-41 -311h-192l43 311h-743z" />
    <glyph glyph-name="five" unicode="5" horiz-adv-x="1163" 
d="M354 1440l758 -6l-22 -181h-605l-90 -381q77 28 109 35q60 13 108 13q205 0 328 -117t123 -305q0 -223 -152 -375q-150 -150 -374 -150q-206 0 -344 129t-144 326h201q6 -114 90 -192q82 -76 203 -76q143 0 235 92t92 233q0 122 -79 195q-80 74 -216 74q-77 0 -135 -27
q-59 -26 -106 -76l-156 31z" />
    <glyph glyph-name="six" unicode="6" horiz-adv-x="1177" 
d="M567 -25l-6 2q-204 0 -344 134q-139 133 -139 325q0 112 55 240q54 125 152 237l456 525h238l-459 -512q34 9 62 12q36 4 65 4q197 0 330 -127t133 -317q0 -215 -160 -369t-383 -154zM909 494l2 2q0 119 -84 200q-83 80 -215 80q-147 0 -241 -94q-99 -94 -99 -233
q0 -126 86 -209q90 -84 213 -84q142 0 240 98t98 240z" />
    <glyph glyph-name="seven" unicode="7" horiz-adv-x="1058" 
d="M879 1260h-732l25 180h963l-21 -156l-786 -1284h-228z" />
    <glyph glyph-name="eight" unicode="8" horiz-adv-x="1204" 
d="M379 797l-4 -6q-65 50 -101 118t-36 154q0 168 127 283q126 114 323 114q195 0 313 -100q121 -103 121 -258q0 -112 -61 -203q-64 -92 -166 -143q89 -56 139 -142q49 -85 49 -186q0 -191 -143 -322t-365 -131q-217 0 -356 115q-137 113 -137 293q0 138 80 250
q80 111 217 164zM414 1053l-6 -4q0 -96 73 -154q69 -57 185 -57q119 0 192 67q74 68 74 170q0 95 -68 154q-71 59 -184 59q-120 0 -193 -67t-73 -168zM885 424v-2q0 112 -82 182q-84 72 -221 72q-140 0 -228 -82t-88 -203q0 -113 86 -184q82 -70 217 -70q138 0 228 84
q88 82 88 203z" />
    <glyph glyph-name="nine" unicode="9" horiz-adv-x="1177" 
d="M666 1464v-2q205 0 344 -133t139 -325q0 -112 -55 -240q-54 -126 -152 -238l-457 -524h-237l459 512q-34 -9 -62 -12q-36 -4 -65 -4q-195 0 -328 127q-131 125 -131 317q0 215 160 369q159 153 385 153zM317 946l-4 -4q0 -120 84 -201q82 -79 215 -79q138 0 242 96
q98 94 98 233q0 126 -86 209q-90 84 -211 84q-141 0 -239 -98q-99 -99 -99 -240z" />
    <glyph glyph-name="colon" unicode=":" horiz-adv-x="557" 
d="M360 113l-2 -7q0 -57 -41 -98q-39 -39 -102 -39q-57 0 -98 41q-39 39 -39 99q0 63 39 102q41 41 100 41q63 0 102 -39q41 -41 41 -100zM473 911l-2 -6q0 -57 -41 -98q-39 -39 -102 -39q-58 0 -99 41q-39 39 -39 98q0 64 39 103q41 41 101 41q63 0 102 -39q41 -41 41 -101
z" />
    <glyph glyph-name="semicolon" unicode=";" horiz-adv-x="567" 
d="M158 -324l-146 -8l166 307q-42 15 -65 52q-25 39 -25 79q0 62 41 103t102 41q64 0 103 -39q41 -41 41 -98q0 -17 -6 -35q-2 -12 -19 -45zM481 909l-2 -6q0 -57 -41 -98q-39 -39 -102 -39q-57 0 -98 41q-39 39 -39 98q0 64 39 103q41 41 100 41q63 0 102 -39
q41 -41 41 -101z" />
    <glyph glyph-name="less" unicode="&#x3c;" horiz-adv-x="1167" 
d="M166 637v154l817 407v-182l-612 -301l612 -303v-183z" />
    <glyph glyph-name="equal" unicode="=" horiz-adv-x="1167" 
d="M145 854v152h924v-152h-924zM145 428v152h924v-152h-924z" />
    <glyph glyph-name="greater" unicode="&#x3e;" horiz-adv-x="1167" 
d="M1057 793v-154l-817 -408v183l612 301l-612 303v182z" />
    <glyph glyph-name="question" unicode="?" horiz-adv-x="1107" 
d="M420 541l254 188q94 70 151 164q56 92 56 186q0 98 -68 154q-67 55 -184 55q-119 0 -199 -74t-104 -202h-195q40 209 178 329q139 121 338 121q196 0 314 -100q120 -102 120 -264q0 -141 -69 -258q-70 -124 -205 -226l-217 -165h-180zM594 111l-2 -7q0 -57 -41 -98
q-39 -39 -102 -39q-58 0 -99 41q-39 39 -39 98q0 64 39 103q41 41 101 41q63 0 102 -39q41 -41 41 -100z" />
    <glyph glyph-name="at" unicode="@" horiz-adv-x="1865" 
d="M827 166l-4 -12q-133 0 -223 90q-88 88 -88 237q0 176 115 303q114 123 276 123q90 0 154 -37q65 -38 102 -104l29 123h176l-102 -434q-24 -102 10 -154q35 -53 121 -53q102 0 166 104q63 100 63 266q0 268 -192 439q-193 172 -486 172q-294 0 -491 -191t-197 -495
q0 -301 199 -482q198 -180 497 -180q76 0 152 13q59 11 123 34v-143q-51 -20 -131 -33q-73 -12 -148 -12q-176 0 -325 57q-159 60 -277 166q-119 107 -184 258q-64 146 -64 328q0 181 62 332q61 149 182 264q115 109 274 172q155 61 330 61q353 0 594 -215
q240 -215 240 -536q0 -235 -111 -373q-112 -139 -305 -139q-96 0 -172 49t-94 135q-51 -65 -119 -100q-62 -33 -152 -33zM700 492l-4 -3q0 -95 43 -147q42 -51 123 -51q106 0 174 86t68 213q0 76 -49 125t-131 49q-93 0 -158 -80q-66 -84 -66 -192z" />
    <glyph glyph-name="A" unicode="A" horiz-adv-x="1384" 
d="M715 1440h209l348 -1440h-207l-80 352h-637l-180 -352h-207zM946 518l-158 696l-356 -696h514z" />
    <glyph glyph-name="B" unicode="B" horiz-adv-x="1368" 
d="M739 0l-633 -4l201 1440h531q180 0 309 -97q123 -95 123 -245q0 -134 -70 -222q-68 -92 -203 -139q121 -41 189 -127q67 -85 67 -198q0 -185 -145 -297q-144 -111 -369 -111zM1061 1061h-4q0 94 -74 153q-78 60 -195 60h-309l-65 -469h344q127 0 217 72q86 71 86 184z
M1044 426v-2q0 99 -79 160t-199 61h-377l-67 -489h405q141 0 229 73t88 197z" />
    <glyph glyph-name="C" unicode="C" horiz-adv-x="1648" 
d="M1378 565l211 -4q-77 -269 -286 -428q-210 -160 -480 -160q-304 0 -504 197q-198 195 -198 489q0 159 59 310q60 147 170 260q106 112 258 174q146 61 307 61q271 0 461 -159q191 -162 232 -408h-209q-43 169 -178 274t-316 105q-240 0 -409 -178q-170 -182 -170 -430
q0 -219 141 -363q140 -143 360 -143q182 0 332 108q148 107 219 295z" />
    <glyph glyph-name="D" unicode="D" horiz-adv-x="1562" 
d="M651 0l-540 -2l200 1440h502q290 0 483 -181q195 -183 195 -460q0 -363 -234 -580q-230 -217 -606 -217zM483 1251l-153 -1065h334q271 0 448 160q174 158 174 434q0 213 -141 342t-365 129h-297z" />
    <glyph glyph-name="E" unicode="E" horiz-adv-x="1185" 
d="M1001 0h-888l202 1440h879l-27 -180h-680l-63 -441h633l-25 -172h-631l-67 -467h692z" />
    <glyph glyph-name="F" unicode="F" horiz-adv-x="1140" 
d="M309 0h-196l202 1440h879l-27 -180h-680l-65 -463h633l-25 -176h-633z" />
    <glyph glyph-name="G" unicode="G" horiz-adv-x="1654" 
d="M1559 723l-103 -717h-164l31 223q-91 -119 -227 -184q-129 -63 -301 -63q-297 0 -488 194q-190 193 -190 486q0 158 59 309q60 148 166 260q111 114 256 176q143 61 305 61q247 0 436 -139q185 -140 236 -366h-213q-52 146 -174 233q-124 86 -287 86q-239 0 -407 -180
t-168 -436q0 -228 141 -369t373 -141q191 0 325 104q136 107 195 301h-529l21 162h707z" />
    <glyph glyph-name="H" unicode="H" horiz-adv-x="1452" 
d="M309 0h-196l202 1440h197l-86 -609h684l84 609h197l-203 -1440h-195l90 645h-684z" />
    <glyph glyph-name="I" unicode="I" horiz-adv-x="573" 
d="M309 0h-196l202 1440h197z" />
    <glyph glyph-name="J" unicode="J" horiz-adv-x="1173" 
d="M928 1440h196l-143 -1020q-27 -203 -166 -324t-338 -121q-208 0 -338 136q-129 135 -114 346h194q-6 -132 68 -215q73 -82 200 -82q125 0 201 76q80 77 98 202z" />
    <glyph glyph-name="K" unicode="K" horiz-adv-x="1216" 
d="M315 1440h197l-92 -647l665 647h254l-729 -703l529 -737h-238l-493 692l-99 -692h-196z" />
    <glyph glyph-name="L" unicode="L" horiz-adv-x="1062" 
d="M963 0h-850l202 1440h197l-178 -1260h653z" />
    <glyph glyph-name="M" unicode="M" horiz-adv-x="1888" 
d="M301 0h-188l200 1440h230l366 -1114l678 1114h240l-203 -1440h-188l155 1108l-682 -1110h-82l-368 1116z" />
    <glyph glyph-name="N" unicode="N" horiz-adv-x="1454" 
d="M297 0h-184l200 1440h187l547 -1125l159 1125h185l-201 -1440h-191l-544 1120z" />
    <glyph glyph-name="O" unicode="O" horiz-adv-x="1699" 
d="M352 1231l-2 -4q112 112 260 174q146 61 310 61q312 0 510 -192q202 -193 202 -494q0 -161 -61 -307q-62 -152 -174 -258q-112 -112 -260 -174t-310 -62q-310 0 -510 197t-200 492q0 161 61 307q62 148 174 260zM322 666l4 -4q0 -218 145 -363q143 -143 369 -143
q244 0 417 176t173 428q0 218 -148 366t-371 148q-245 0 -417 -178t-172 -430z" />
    <glyph glyph-name="P" unicode="P" horiz-adv-x="1308" 
d="M309 0l-194 -2l200 1440h514q208 0 345 -119q139 -121 139 -301q0 -230 -164 -365q-163 -135 -422 -135h-346zM795 1266h-310l-79 -576h333q161 0 265 84q102 83 102 227q0 118 -88 191q-89 74 -223 74z" />
    <glyph glyph-name="Q" unicode="Q" horiz-adv-x="1699" 
d="M352 1231l-6 -4q112 112 260 174q146 61 309 61q312 0 510 -192q203 -194 203 -494q0 -199 -88 -368q-89 -170 -246 -285l185 -287h-205l-131 203q-66 -30 -154 -47q-93 -17 -162 -17q-310 0 -510 197t-200 492q0 161 61 307q62 148 174 260zM317 666l5 -9
q0 -217 145 -362t369 -145q48 0 106 10q54 10 98 28l-335 523h204l283 -441q110 85 172 215q61 128 61 275q0 219 -147 366q-148 148 -371 148q-246 0 -418 -178t-172 -430z" />
    <glyph glyph-name="R" unicode="R" 
d="M311 0l-200 -4l200 1440h512q207 0 344 -113q138 -114 138 -289q0 -198 -142 -325t-370 -142l436 -567h-238l-432 565h-170zM791 1264l-306 2l-73 -541h329q156 0 256 80q99 79 99 215q0 108 -86 176t-219 68z" />
    <glyph glyph-name="S" unicode="S" horiz-adv-x="1234" 
d="M684 1464l-2 -8q229 0 362 -121t130 -331h-197q3 135 -74 206q-78 72 -221 72q-127 0 -203 -61t-76 -162q0 -71 46 -117q44 -44 184 -94l127 -45q213 -74 289 -162q79 -88 79 -221q0 -205 -139 -326t-366 -121q-265 0 -408 131q-147 132 -135 363h201q-9 -154 79 -236
q87 -81 258 -81q139 0 222 71q84 72 84 191q0 51 -21 86q-19 37 -67 65q-30 21 -52 29l-118 47l-140 51q-174 64 -252 154q-75 87 -75 215q0 184 135 295q134 110 350 110z" />
    <glyph glyph-name="T" unicode="T" horiz-adv-x="1101" 
d="M571 0h-194l176 1260h-422l25 180h1042l-27 -180h-421z" />
    <glyph glyph-name="U" unicode="U" horiz-adv-x="1404" 
d="M1024 459l135 981h197l-142 -1002q-30 -211 -178 -338q-143 -125 -366 -125q-239 0 -387 154t-113 385l129 928h197l-129 -936q-21 -152 67 -246q90 -96 242 -96q138 0 233 80q97 82 115 215z" />
    <glyph glyph-name="V" unicode="V" horiz-adv-x="1320" 
d="M690 0h-209l-309 1440h209l240 -1176l565 1176h217z" />
    <glyph glyph-name="W" unicode="W" horiz-adv-x="2021" 
d="M602 0h-209l-219 1440h203l160 -1178l507 1178h183l178 -1168l483 1168h211l-624 -1440h-209l-176 1096z" />
    <glyph glyph-name="X" unicode="X" horiz-adv-x="1325" 
d="M168 0h-231l634 731l-413 709h223l326 -566l489 566h227l-616 -715l434 -725h-225l-346 580z" />
    <glyph glyph-name="Y" unicode="Y" horiz-adv-x="1290" 
d="M670 0h-197l74 524l-371 916h209l281 -713l483 713h219l-623 -903z" />
    <glyph glyph-name="Z" unicode="Z" horiz-adv-x="1173" 
d="M1020 0h-1016l23 160l905 1100h-739l24 180h995l-22 -160l-907 -1100h761z" />
    <glyph glyph-name="bracketleft" unicode="[" horiz-adv-x="708" 
d="M817 1659l-26 -174h-281l-223 -1598h280l-24 -174h-471l274 1946h471z" />
    <glyph glyph-name="backslash" unicode="\" horiz-adv-x="1306" 
d="M393 1659l760 -1946h-199l-759 1946h198z" />
    <glyph glyph-name="bracketright" unicode="]" horiz-adv-x="706" 
d="M-63 -287l26 174h281l223 1598h-281l25 174h471l-274 -1946h-471z" />
    <glyph glyph-name="asciicircum" unicode="^" horiz-adv-x="1167" 
d="M510 1440h182l369 -858h-199l-262 622l-262 -622h-199z" />
    <glyph glyph-name="underscore" unicode="_" horiz-adv-x="901" 
d="M-127 -270h905v-164h-905v164z" />
    <glyph glyph-name="grave" unicode="`" horiz-adv-x="534" 
d="M242 1171l-125 297h178l121 -297h-174z" />
    <glyph glyph-name="a" unicode="a" horiz-adv-x="1110" 
d="M600 899v-2q-96 0 -166 -49q-69 -48 -104 -139h-185q47 159 177 252q134 96 294 96q198 0 299 -119q102 -120 68 -313l-102 -629h-179l21 129q-61 -73 -143 -113q-77 -39 -179 -39q-143 0 -235 80t-92 203q0 141 92 227t283 121l354 64q15 109 -37 170t-166 61zM256 270
v-4q0 -65 49 -102t135 -37q115 0 213 98q99 99 117 230l8 55l-301 -55q-110 -21 -166 -68q-55 -46 -55 -117z" />
    <glyph glyph-name="b" unicode="b" 
d="M270 0l-178 -2l213 1518h189l-88 -623q74 77 174 123q98 43 208 43q213 0 349 -139q135 -138 135 -349q0 -258 -162 -426q-163 -172 -401 -172q-133 0 -242 62q-106 60 -168 172zM1077 551v2q0 144 -96 240t-240 96q-163 0 -278 -115q-113 -113 -113 -282q0 -142 96 -246
q94 -99 246 -99q164 0 275 117q110 116 110 287z" />
    <glyph glyph-name="c" unicode="c" horiz-adv-x="1239" 
d="M608 150l-8 -5q124 0 219 68q96 68 142 188h188q-61 -203 -207 -319q-143 -113 -350 -113q-217 0 -369 146q-147 144 -147 356q0 247 166 416q167 170 411 170q201 0 342 -117q142 -118 166 -305h-182q-27 113 -117 182q-89 68 -205 68q-168 0 -278 -113
q-111 -114 -111 -283q0 -136 97 -241q94 -98 243 -98z" />
    <glyph glyph-name="d" unicode="d" 
d="M1331 1518l-217 -1522h-178l22 154q-82 -88 -178 -132q-96 -45 -215 -45q-211 0 -348 140q-135 138 -135 348q0 258 162 426q163 172 401 172q137 0 238 -58q104 -58 166 -161l94 678h188zM274 477v-4q0 -143 97 -240q94 -94 239 -94q164 0 279 115q112 112 112 283
q0 141 -96 245q-95 99 -246 99q-163 0 -274 -117t-111 -287z" />
    <glyph glyph-name="e" unicode="e" horiz-adv-x="1236" 
d="M598 137l4 -4q108 0 191 47q79 44 133 142h192q-71 -164 -209 -256q-140 -93 -313 -93q-224 0 -369 142q-143 140 -143 356q0 244 166 416t405 172q220 0 361 -144t141 -356v-45q0 -13 -4 -49h-887q6 -148 99 -238q96 -90 233 -90zM653 893l-4 2q-125 0 -219 -76
q-97 -73 -139 -203h684q-21 127 -109 203q-86 74 -213 74z" />
    <glyph glyph-name="f" unicode="f" horiz-adv-x="722" 
d="M477 866l-127 -866h-188l121 866h-179l25 168h176l21 144q27 179 123 272q95 92 258 92q47 0 90 -6q49 -6 86 -20l-25 -164l-63 16q-30 6 -62 6q-96 0 -147 -51q-53 -53 -68 -160l-18 -129h268l-25 -168h-266z" />
    <glyph glyph-name="g" unicode="g" horiz-adv-x="1288" 
d="M18 -49l181 -4q3 -119 92 -187q88 -67 233 -67q130 0 226 78q92 77 110 206l31 216q-71 -72 -154 -109q-84 -37 -182 -37q-199 0 -332 133t-133 324q0 229 152 395q151 160 372 160q121 0 224 -53q100 -55 155 -152l25 180h180l-147 -1048q-27 -203 -170 -328
q-141 -123 -355 -123q-219 0 -364 115q-141 117 -144 301zM592 211l-4 -2q149 0 252 106q104 107 104 258q0 138 -88 226q-90 90 -227 90q-145 0 -246 -107q-100 -106 -100 -258q0 -141 86 -227t223 -86z" />
    <glyph glyph-name="h" unicode="h" horiz-adv-x="1222" 
d="M281 0l-187 -2l213 1518h189l-84 -592q61 61 143 98q84 35 168 35q194 0 293 -123q98 -122 71 -322l-83 -612h-189l82 598q18 137 -43 213q-63 78 -190 78q-112 0 -195 -74t-98 -178z" />
    <glyph glyph-name="i" unicode="i" horiz-adv-x="524" 
d="M248 1364v-2q0 57 37 94t98 37q59 0 96 -37t37 -92t-37 -92t-96 -37q-61 0 -98 37t-37 92zM285 -2h-189l146 1034h188z" />
    <glyph glyph-name="j" unicode="j" horiz-adv-x="538" 
d="M520 1368q0 -51 -37 -88t-92 -37q-51 0 -92 35q-37 34 -37 90t37 90q41 35 92 35q55 0 92 -37t37 -88zM98 -78l156 1108h190l-159 -1126q-26 -188 -119 -281q-96 -90 -258 -90q-16 0 -66 4l-51 6l23 164q4 -2 32 -2h37q95 0 148 53q52 52 67 164z" />
    <glyph glyph-name="k" unicode="k" horiz-adv-x="1036" 
d="M281 0h-189l213 1518h189l-132 -928l467 444h238l-510 -479l424 -555h-229l-398 528z" />
    <glyph glyph-name="l" unicode="l" horiz-adv-x="524" 
d="M309 1518h189l-213 -1518h-189z" />
    <glyph glyph-name="m" unicode="m" horiz-adv-x="1904" 
d="M279 0h-187l148 1034h178l-19 -125q61 70 142 111q74 39 170 39q120 0 200 -51q85 -52 129 -148q65 95 160 148q92 51 207 51q188 0 289 -125q100 -124 73 -320l-86 -612h-188l82 596q18 132 -43 211q-62 80 -180 80q-111 0 -191 -74q-79 -73 -94 -186l-88 -627h-188
l84 596q18 132 -43 211q-62 80 -181 80q-110 0 -190 -74q-79 -73 -94 -184z" />
    <glyph glyph-name="n" unicode="n" horiz-adv-x="1222" 
d="M279 0l-185 -2l148 1034h178l-19 -123q65 71 148 109q81 37 176 37q194 0 293 -123t72 -322l-84 -612h-189l82 598q18 137 -43 213q-63 78 -190 78q-111 0 -197 -74q-85 -76 -100 -178z" />
    <glyph glyph-name="o" unicode="o" horiz-adv-x="1267" 
d="M1188 559h2q0 -246 -168 -414t-418 -168q-227 0 -375 142q-147 141 -147 356q0 244 168 412q170 170 418 170q224 0 372 -142t148 -356zM270 487l-2 -2q0 -142 99 -241t245 -99q163 0 277 117q112 112 112 283q0 145 -94 239q-95 99 -239 99q-170 0 -283 -113
q-115 -115 -115 -283z" />
    <glyph glyph-name="p" unicode="p" horiz-adv-x="1351" 
d="M1272 571l2 4q0 -257 -162 -425q-164 -173 -401 -173q-130 0 -236 56q-105 57 -168 160l-86 -627h-188l207 1468h178l-21 -149q73 82 176 129q96 45 215 45q213 0 349 -139q135 -138 135 -349zM1077 557v2q0 144 -96 240t-240 96q-163 0 -278 -115q-113 -113 -113 -282
q0 -142 96 -246q94 -98 246 -98q165 0 275 116t110 287z" />
    <glyph glyph-name="q" unicode="q" 
d="M82 463l-2 2q0 258 162 426q163 172 401 172q137 0 246 -62q108 -61 166 -172l28 207h179l-207 -1468h-189l82 573q-74 -77 -174 -123q-98 -43 -209 -43q-211 0 -348 140q-135 138 -135 348zM276 483v-4q0 -142 97 -239q95 -95 239 -95q164 0 279 115q113 113 113 283
q0 140 -97 245q-95 99 -245 99q-164 0 -275 -117t-111 -287z" />
    <glyph glyph-name="r" unicode="r" horiz-adv-x="772" 
d="M238 1034l184 2l-23 -157q64 85 150 127q85 43 182 43q27 0 41 -2l35 -7l-27 -178l-39 6q-14 2 -43 2q-135 0 -227 -86t-113 -227l-79 -557h-189z" />
    <glyph glyph-name="s" unicode="s" horiz-adv-x="1003" 
d="M535 1059l-9 -8q180 0 289 -86t109 -238h-191q0 83 -53 127q-52 43 -158 43q-90 0 -145 -37t-55 -102q0 -53 36 -82q42 -33 148 -62l82 -22q158 -44 227 -113q72 -72 72 -174q0 -157 -111 -246q-116 -90 -293 -90q-206 0 -325 94q-120 95 -117 265h197q-3 -96 61 -148
q65 -53 178 -53q103 0 160 45q59 47 59 123q0 54 -34 84q-31 31 -136 59l-116 33q-142 41 -205 107q-64 64 -64 172q0 138 111 223q112 86 283 86z" />
    <glyph glyph-name="t" unicode="t" horiz-adv-x="776" 
d="M784 1034l-22 -162h-307l-74 -512q-15 -121 20 -165q38 -50 134 -50q23 0 73 11q37 10 76 30l-25 -170q-36 -22 -73 -30q-34 -9 -86 -9q-182 0 -260 93q-77 92 -50 282l76 514h-180l25 168h180l49 334l192 33l-53 -367h305z" />
    <glyph glyph-name="u" unicode="u" horiz-adv-x="1202" 
d="M926 1034l180 2l-145 -1034h-179l19 125q-61 -70 -142 -111q-74 -39 -170 -39q-184 0 -284 127q-99 126 -72 320l86 612h189l-84 -596q-18 -132 43 -211t178 -79q115 0 194 73q81 75 99 197z" />
    <glyph glyph-name="v" unicode="v" horiz-adv-x="1079" 
d="M573 0h-211l-249 1034h190l191 -823l419 823h201z" />
    <glyph glyph-name="w" unicode="w" horiz-adv-x="1732" 
d="M520 0h-192l-217 1034h182l164 -811l391 811h182l162 -807l387 807h190l-507 -1034h-189l-166 791z" />
    <glyph glyph-name="x" unicode="x" horiz-adv-x="1032" 
d="M162 0h-211l457 528l-295 506h204l220 -379l327 379h209l-446 -510l311 -524h-207l-231 391z" />
    <glyph glyph-name="y" unicode="y" horiz-adv-x="1079" 
d="M913 1034h199l-764 -1468h-194l219 424l-262 1044h194l193 -813z" />
    <glyph glyph-name="z" unicode="z" horiz-adv-x="1015" 
d="M881 0h-889l18 127l727 739h-596l25 168h835l-18 -135l-713 -731h633z" />
    <glyph glyph-name="braceleft" unicode="{" horiz-adv-x="698" 
d="M113 659h-35l20 158h47q66 0 99 39t49 131l51 336q27 180 115 268q87 90 233 90q35 0 53 -2l56 -6l-25 -174l-39 6q-14 2 -39 2q-67 0 -110 -55q-44 -57 -58 -160l-45 -319q-15 -101 -49 -156q-35 -57 -98 -80q56 -35 74 -98q19 -68 4 -162l-56 -377q-18 -119 23 -178
q39 -57 141 -57h15q10 0 12 2l-25 -174h-28q-188 0 -273 104q-84 104 -57 299l55 375q15 95 -12 141q-27 47 -98 47z" />
    <glyph glyph-name="bar" unicode="|" horiz-adv-x="616" 
d="M236 1659h188v-1946h-188v1946z" />
    <glyph glyph-name="braceright" unicode="}" horiz-adv-x="696" 
d="M631 713l26 -6l-20 -158h-47q-65 0 -98 -39q-35 -41 -50 -131l-51 -336q-27 -178 -115 -266q-85 -88 -233 -88q-35 0 -53 2l-56 6l25 174l41 -6q14 -2 41 -2q68 0 111 55q44 55 59 160l45 319q15 101 49 156q35 57 98 80q-55 34 -73 98q-19 68 -4 162l55 377
q18 119 -23 178q-39 57 -141 57h-12q-10 0 -12 -2l24 174h29q187 0 272 -104q84 -101 57 -297l-55 -375q-15 -95 12 -141q27 -47 99 -47z" />
    <glyph glyph-name="asciitilde" unicode="~" horiz-adv-x="1167" 
d="M659 844l-8 -4q72 -35 117 -47q49 -11 76 -11q69 0 123 31q48 27 116 121v-189q-40 -67 -104 -104t-148 -37q-51 0 -98 12q-52 16 -123 52q-65 35 -116 51q-43 12 -91 12q-79 0 -141 -39q-66 -42 -115 -117v185q34 60 109 106q73 43 158 43q52 0 104 -12q50 -12 141 -53z
" />
    <glyph glyph-name="uni00A0" unicode="&#xa0;" horiz-adv-x="514" 
 />
    <glyph glyph-name="exclamdown" unicode="&#xa1;" horiz-adv-x="530" 
d="M180 922v-7q0 58 41 99t103 41q59 0 98 -39q41 -41 41 -98q0 -62 -39 -101t-100 -39q-62 0 -103 41t-41 103zM211 580h125l-29 -482l-74 -510h-198l74 510z" />
    <glyph glyph-name="cent" unicode="&#xa2;" horiz-adv-x="1251" 
d="M651 -14l-194 -47l39 272q-168 43 -271 176q-102 132 -102 307q0 230 147 396q145 165 373 186l29 217l194 43l-37 -272q153 -35 252 -146q102 -111 123 -264h-182q-27 113 -117 182q-89 68 -205 68q-168 0 -278 -113q-111 -114 -111 -282q0 -137 97 -242q94 -98 243 -98
q125 0 219 67q95 68 142 189h188q-59 -197 -192 -306q-134 -110 -326 -122z" />
    <glyph glyph-name="sterling" unicode="&#xa3;" horiz-adv-x="1359" 
d="M1194 0l-1167 -4l20 156q127 18 203 135q77 118 86 288h-230l23 160h203l-6 123q-2 31 -2 62q0 255 147 399q143 143 381 143q211 0 344 -133q132 -132 135 -368h-198q0 151 -76 233q-77 86 -211 86q-146 0 -236 -90q-88 -88 -88 -250v-74q0 -40 6 -129h369l-25 -159
h-340q-3 -124 -47 -226q-44 -110 -112 -172h846z" />
    <glyph glyph-name="currency" unicode="&#xa4;" horiz-adv-x="1306" 
d="M264 170l-217 -2l281 324q-28 42 -39 88q-13 54 -13 102q0 78 27 145q25 68 76 129l-178 297h196l115 -192q58 26 92 35q50 12 101 12q64 0 110 -14q45 -12 98 -45l185 206h207l-281 -323q30 -45 41 -90q12 -50 12 -103q0 -77 -24 -147t-74 -129l176 -295h-197l-112 188
q-54 -24 -94 -34q-54 -13 -101 -13t-106 19q-53 18 -101 49zM688 944v-4q-106 0 -180 -74t-74 -182q0 -92 62 -154q61 -61 153 -61q111 0 185 74q73 73 73 182q0 97 -61 158t-158 61z" />
    <glyph glyph-name="yen" unicode="&#xa5;" horiz-adv-x="1314" 
d="M680 0h-197l39 283h-362l20 153h365l12 88l-14 35h-348l20 154h266l-295 727h209l281 -713l483 713h219l-501 -727h262l-21 -154h-346l-16 -22l-15 -101h363l-21 -153h-364z" />
    <glyph glyph-name="brokenbar" unicode="&#xa6;" horiz-adv-x="626" 
d="M242 1659h188v-819h-188v819zM242 -287v819h188v-819h-188z" />
    <glyph glyph-name="section" unicode="&#xa7;" horiz-adv-x="1163" 
d="M758 498l-236 112q-190 90 -272 191t-82 229q0 193 135 313q139 121 348 121q228 0 363 -123q134 -125 131 -327h-193q3 135 -75 207q-79 73 -224 73q-124 0 -207 -71q-79 -70 -79 -189q0 -54 24 -100q19 -39 84 -88q24 -18 64 -41l133 -74l297 -160l-11 -73h-200z
M403 506l236 -131q203 -108 279 -199q75 -87 75 -213q0 -193 -135 -313q-131 -119 -346 -119q-232 0 -367 123t-129 330h193q-3 -135 78 -207q80 -74 221 -74q123 0 207 72q80 71 80 190q0 73 -54 139q-54 63 -249 166l-299 160l10 76h200z" />
    <glyph glyph-name="dieresis" unicode="&#xa8;" horiz-adv-x="692" 
d="M305 1309h-2q0 -47 -31 -78t-75 -31q-45 0 -76 31t-31 78q0 46 31 77t78 31q44 0 75 -31t31 -77zM602 1309l-4 -4q0 -45 -31 -76t-75 -31q-45 0 -76 31t-31 78q0 46 31 77t78 31q46 0 77 -31t31 -75z" />
    <glyph glyph-name="copyright" unicode="&#xa9;" horiz-adv-x="1685" 
d="M1612 719l-8 -6q0 -307 -218 -525q-217 -217 -524 -217q-305 0 -524 219q-217 217 -217 527q0 309 219 528t526 219q310 0 527 -217q219 -219 219 -528zM242 713v-2q0 -255 182 -437t436 -182t436 182q183 183 183 437q0 251 -183 440q-181 184 -436 184t-436 -184
q-182 -188 -182 -438zM862 1116l-2 -2q148 0 264 -90q112 -91 138 -238h-193q-21 72 -78 111q-59 41 -129 41q-94 0 -160 -66q-63 -63 -63 -163q0 -101 63 -164q66 -66 160 -66q77 0 135 43t76 113h193q-27 -146 -138 -240q-112 -92 -266 -92q-178 0 -295 117
q-116 116 -116 291q0 172 116 288q117 117 295 117z" />
    <glyph glyph-name="ordfeminine" unicode="&#xaa;" horiz-adv-x="757" 
d="M393 1286l-139 -2q15 81 84 129q67 49 160 49q107 0 166 -59q58 -58 43 -158l-45 -315h-130l9 57q-25 -32 -68 -51q-41 -18 -86 -18q-75 0 -119 38q-45 39 -45 105q0 72 49 115t154 61l145 27q6 37 -16 65q-22 25 -61 25q-40 0 -68 -19q-27 -18 -33 -49zM362 1079h-2
q0 -22 19 -35q18 -12 51 -12q34 0 78 29q38 25 41 61l6 37l-115 -20q-44 -6 -59 -21q-19 -16 -19 -39zM182 786h463l-18 -133h-463z" />
    <glyph glyph-name="guillemotleft" unicode="&#xab;" horiz-adv-x="933" 
d="M254 72l-160 448l287 451h188l-293 -461l156 -438h-178zM584 72l-160 448l287 451h188l-293 -461l156 -438h-178z" />
    <glyph glyph-name="logicalnot" unicode="&#xac;" horiz-adv-x="1167" 
d="M115 649v152h923v-545h-151v393h-772z" />
    <glyph glyph-name="uni00AD" unicode="&#xad;" horiz-adv-x="788" 
d="M172 750h492v-181h-492v181z" />
    <glyph glyph-name="registered" unicode="&#xae;" horiz-adv-x="1234" 
d="M678 455l-2 -2q-212 0 -359 147t-147 358q0 214 147 361t359 147q213 0 360 -147q148 -148 148 -358q0 -211 -148 -359q-147 -147 -358 -147zM676 1348l-2 -5q-165 0 -277 -112t-112 -277q0 -162 114 -276q113 -113 277 -113q161 0 276 115q113 113 113 276
q0 164 -113 277q-115 115 -276 115zM604 719h-127v475h232q78 0 129 -45q53 -47 53 -117q0 -50 -27 -90t-73 -61l124 -162h-147l-111 143h-53v-143zM694 1083l-90 -2v-120h90q31 0 49 18q19 19 19 45q0 27 -19 43q-22 16 -49 16z" />
    <glyph glyph-name="macron" unicode="&#xaf;" horiz-adv-x="729" 
d="M631 1231h-551l18 129h551z" />
    <glyph glyph-name="degree" unicode="&#xb0;" horiz-adv-x="772" 
d="M770 1167q0 -123 -86 -209t-209 -86q-122 0 -211 86q-88 85 -88 209t88 209q89 86 211 86q123 0 209 -86t86 -209zM303 1167l-2 -4q0 -70 49 -119t121 -49q70 0 119 49t49 121t-49 121t-119 49t-119 -49t-49 -119z" />
    <glyph glyph-name="plusminus" unicode="&#xb1;" horiz-adv-x="1167" 
d="M649 336h-149v346h-387v149h387v347h149v-347h387v-149h-387v-346zM113 10v152h921v-152h-921z" />
    <glyph glyph-name="twosuperior" unicode="&#xb2;" horiz-adv-x="657" 
d="M383 1151l291 4l-21 -143h-522l19 133l311 241q45 36 67 68q21 27 21 64q0 39 -25 61q-30 23 -67 23t-74 -29q-31 -25 -41 -74h-152q21 107 99 176q77 68 184 68q109 0 176 -55q68 -56 68 -146q0 -70 -35 -129q-36 -61 -141 -141z" />
    <glyph glyph-name="threesuperior" unicode="&#xb3;" horiz-adv-x="649" 
d="M535 1233h-9q0 48 -30 72t-80 24h-68l17 111h75q51 0 78 24q29 26 29 68q0 34 -25 59t-65 25q-42 0 -70 -25q-27 -21 -33 -67h-155q18 97 90 157t172 60q113 0 176 -51q65 -53 65 -131q0 -57 -28 -105t-84 -72q47 -24 67 -63q23 -44 23 -88q0 -98 -74 -166t-194 -68
t-191 62q-69 60 -69 160h147q3 -43 35 -68q27 -27 80 -27q50 0 86 31q35 30 35 78z" />
    <glyph glyph-name="acute" unicode="&#xb4;" horiz-adv-x="534" 
d="M260 1171h-186l209 297h186z" />
    <glyph glyph-name="mu" unicode="&#xb5;" horiz-adv-x="1236" 
d="M948 1034l178 2l-145 -1034h-178l18 125q-61 -71 -141 -111q-74 -39 -170 -39q-53 0 -119 17q-55 14 -102 49l-66 -475h-188l205 1468h188l-88 -626q-15 -114 49 -187t178 -73q116 0 195 73q80 74 98 197z" />
    <glyph glyph-name="paragraph" unicode="&#xb6;" horiz-adv-x="1288" 
d="M846 1440l-244 -1729h-156l121 862h-18q-181 0 -301 111q-119 110 -119 287q0 216 147 342q151 127 371 127h199zM965 -289h-156l242 1727h155z" />
    <glyph glyph-name="periodcentered" unicode="&#xb7;" horiz-adv-x="518" 
d="M426 735l-2 -6q0 -57 -41 -98q-39 -39 -102 -39q-58 0 -99 41q-39 39 -39 98q0 64 39 103q40 40 101 40q64 0 102 -38q41 -41 41 -101z" />
    <glyph glyph-name="cedilla" unicode="&#xb8;" horiz-adv-x="870" 
d="M127 -195l162 205h145l-100 -129q90 -3 145 -55q56 -53 56 -135q0 -95 -68 -160q-63 -63 -168 -63q-103 0 -164 55t-61 143h143q0 -29 25 -51q21 -21 61 -21q37 0 66 29q28 28 28 66t-24 59q-30 23 -64 23q-18 0 -39 -7q-20 -6 -39 -26z" />
    <glyph glyph-name="onesuperior" unicode="&#xb9;" horiz-adv-x="423" 
d="M387 1008h-149l81 577h-143l53 144h260z" />
    <glyph glyph-name="ordmasculine" unicode="&#xba;" horiz-adv-x="831" 
d="M233 1178h-2q0 116 86 202t207 86q114 0 187 -73t73 -179q0 -122 -86 -208t-206 -86q-112 0 -185 73q-74 74 -74 185zM373 1182q0 -51 35 -92q34 -37 90 -37q62 0 104 45q43 46 43 110q0 52 -37 86q-41 35 -92 35q-57 0 -100 -43t-43 -104zM188 788h531l-19 -133h-530z
" />
    <glyph glyph-name="guillemotright" unicode="&#xbb;" horiz-adv-x="935" 
d="M682 971l160 -449l-287 -450h-188l292 460l-155 439h178zM350 971l160 -449l-287 -450h-188l293 460l-156 439h178z" />
    <glyph glyph-name="onequarter" unicode="&#xbc;" horiz-adv-x="1390" 
d="M707 252l342 469h176l-334 -453h182l19 127l147 33l-22 -160h57l-19 -137h-61l-16 -131h-144l17 131h-363zM395 719h-149l82 577h-144l54 144h260zM1233 1440h180l-1233 -1440h-180z" />
    <glyph glyph-name="onehalf" unicode="&#xbd;" horiz-adv-x="1460" 
d="M1030 143l291 4l-21 -143h-522l19 133l311 242q48 39 68 67q20 26 20 64q0 39 -25 61q-30 23 -67 23t-74 -29q-32 -25 -41 -73h-151q21 108 98 176q76 67 184 67q109 0 176 -55q68 -56 68 -145q0 -70 -35 -129q-37 -62 -141 -142zM387 723h-149l81 577h-143l53 144h260z
M1225 1444h180l-1233 -1440h-180z" />
    <glyph glyph-name="threequarters" unicode="&#xbe;" horiz-adv-x="1490" 
d="M805 252l342 469h176l-334 -453h182l19 127l147 33l-22 -160h57l-18 -137h-62l-16 -131h-143l16 131h-363zM1341 1440h181l-1233 -1440h-180zM512 944h-8q0 47 -31 72q-30 24 -80 24h-67l16 111h76q50 0 78 25t28 67q0 36 -24 60t-66 24t-69 -24q-27 -21 -33 -68h-156
q18 98 90 158q71 59 172 59q113 0 176 -51q66 -54 66 -131q0 -55 -29 -105q-27 -46 -84 -71q48 -25 68 -64q22 -42 22 -88q0 -99 -73 -166t-195 -67q-120 0 -190 61t-70 160h147q3 -43 35 -68q26 -26 80 -26q51 0 86 30t35 78z" />
    <glyph glyph-name="questiondown" unicode="&#xbf;" horiz-adv-x="1085" 
d="M492 922v-7q0 59 40 99q41 41 103 41q59 0 98 -39q41 -41 41 -98q0 -62 -39 -101t-100 -39q-62 0 -103 41q-40 40 -40 103zM670 487l-260 -196q-94 -71 -150 -162q-55 -91 -55 -186q0 -99 67 -154t185 -55q119 0 198 73q81 75 105 203h194q-41 -208 -178 -327t-338 -119
q-193 0 -313 102q-121 103 -121 264q0 129 72 258q70 123 207 226l217 166h180z" />
    <glyph glyph-name="Agrave" unicode="&#xc0;" horiz-adv-x="1384" 
d="M715 1440h209l348 -1440h-207l-80 352h-637l-180 -352h-207zM946 518l-158 696l-356 -696h514zM723 1567l-125 297h178l121 -297h-174z" />
    <glyph glyph-name="Aacute" unicode="&#xc1;" horiz-adv-x="1384" 
d="M715 1440h209l348 -1440h-207l-80 352h-637l-180 -352h-207zM946 518l-158 696l-356 -696h514zM926 1567h-187l209 297h187z" />
    <glyph glyph-name="Acircumflex" unicode="&#xc2;" horiz-adv-x="1384" 
d="M715 1440h209l348 -1440h-207l-80 352h-637l-180 -352h-207zM946 518l-158 696l-356 -696h514zM514 1567l279 297h168l198 -297h-162l-129 190l-180 -190h-174z" />
    <glyph glyph-name="Atilde" unicode="&#xc3;" horiz-adv-x="1384" 
d="M715 1440h209l348 -1440h-207l-80 352h-637l-180 -352h-207zM946 518l-158 696l-356 -696h514zM903 1751l-4 -2l43 -37q8 -8 25 -8q29 0 41 25q12 21 22 88h127q-9 -126 -55 -187t-135 -61q-46 0 -74 14q-32 14 -80 62q-22 29 -43 41q-17 10 -35 10q-36 0 -55 -29
q-19 -34 -27 -92h-127q9 125 62 190q52 64 151 64q32 0 78 -17q37 -15 86 -61z" />
    <glyph glyph-name="Adieresis" unicode="&#xc4;" horiz-adv-x="1384" 
d="M715 1440h209l348 -1440h-207l-80 352h-637l-180 -352h-207zM946 518l-158 696l-356 -696h514zM807 1700h-2q0 -47 -31 -78t-76 -31q-44 0 -75 31t-31 78t31 78q30 30 77 30q46 0 76 -30q31 -31 31 -78zM1104 1700l-4 -4q0 -45 -31 -76t-76 -31q-44 0 -75 31t-31 78
t31 78q30 30 77 30q48 0 78 -30q31 -31 31 -76z" />
    <glyph glyph-name="Aring" unicode="&#xc5;" horiz-adv-x="1384" 
d="M715 1440h209l348 -1440h-207l-80 352h-637l-180 -352h-207zM946 518l-158 696l-356 -696h514zM1061 1749l-2 -4q0 -82 -62 -141q-58 -58 -147 -58q-88 0 -148 60q-59 59 -59 141t62 141q66 60 147 60q89 0 147 -58q62 -59 62 -141zM760 1745l-2 -4q0 -42 26 -68t68 -26
q40 0 68 28t28 68q0 41 -26 67q-29 29 -68 29q-41 0 -68 -27q-26 -26 -26 -67z" />
    <glyph glyph-name="AE" unicode="&#xc6;" horiz-adv-x="1935" 
d="M1751 0h-889l49 352h-544l-269 -352h-215l1094 1440h967l-27 -180h-680l-63 -441h632l-24 -172h-631l-68 -467h693zM1036 1231l-542 -713h442z" />
    <glyph glyph-name="Ccedilla" unicode="&#xc7;" horiz-adv-x="1648" 
d="M1378 565l203 -6q-74 -253 -264 -412q-192 -160 -440 -178l-70 -88q90 -3 145 -55q56 -53 56 -135q0 -95 -68 -160q-63 -63 -168 -63q-103 0 -164 55t-61 143h143q0 -29 25 -51q21 -21 61 -21q37 0 66 29q28 28 28 66t-24 59q-30 23 -64 23q-18 0 -39 -7q-18 -6 -38 -26
l-105 67l139 175q-272 27 -446 219q-172 190 -172 460q0 159 59 310q60 147 170 260q106 112 258 174q146 61 307 61q271 0 461 -159q191 -162 232 -408h-209q-43 169 -178 274t-316 105q-240 0 -409 -178q-170 -182 -170 -430q0 -219 141 -363q140 -143 360 -143
q182 0 332 108q148 107 219 295z" />
    <glyph glyph-name="Egrave" unicode="&#xc8;" horiz-adv-x="1185" 
d="M659 1567l-124 297h178l121 -297h-175zM1001 0h-888l202 1440h879l-27 -180h-680l-63 -441h633l-25 -172h-631l-67 -467h692z" />
    <glyph glyph-name="Eacute" unicode="&#xc9;" horiz-adv-x="1185" 
d="M1001 0h-888l202 1440h879l-27 -180h-680l-63 -441h633l-25 -172h-631l-67 -467h692zM862 1567h-186l209 297h186z" />
    <glyph glyph-name="Ecircumflex" unicode="&#xca;" horiz-adv-x="1185" 
d="M451 1567l278 297h168l199 -297h-162l-129 190l-180 -190h-174zM1001 0h-888l202 1440h879l-27 -180h-680l-63 -441h633l-25 -172h-631l-67 -467h692z" />
    <glyph glyph-name="Edieresis" unicode="&#xcb;" horiz-adv-x="1185" 
d="M1001 0h-888l202 1440h879l-27 -180h-680l-63 -441h633l-25 -172h-631l-67 -467h692zM743 1700h-2q0 -48 -30 -78q-31 -31 -76 -31t-76 31t-31 78t31 78q30 30 78 30q46 0 76 -30t30 -78zM1040 1700l-4 -4q0 -46 -30 -76q-31 -31 -76 -31t-76 31t-31 78t31 78
q30 30 78 30t78 -30t30 -76z" />
    <glyph glyph-name="Igrave" unicode="&#xcc;" horiz-adv-x="573" 
d="M309 0h-196l202 1440h197zM317 1567l-124 297h178l121 -297h-175z" />
    <glyph glyph-name="Iacute" unicode="&#xcd;" horiz-adv-x="573" 
d="M309 0h-196l202 1440h197zM520 1567h-186l209 297h186z" />
    <glyph glyph-name="Icircumflex" unicode="&#xce;" horiz-adv-x="573" 
d="M309 0h-196l202 1440h197zM109 1567l278 297h168l199 -297h-162l-129 190l-180 -190h-174z" />
    <glyph glyph-name="Idieresis" unicode="&#xcf;" horiz-adv-x="573" 
d="M309 0h-196l202 1440h197zM401 1700h-2q0 -48 -30 -78q-31 -31 -76 -31t-76 31t-31 78t31 78q30 30 78 30q46 0 76 -30t30 -78zM698 1700l-4 -4q0 -46 -30 -76q-31 -31 -76 -31t-76 31t-31 78t31 78q30 30 78 30t78 -30t30 -76z" />
    <glyph glyph-name="Eth" unicode="&#xd0;" horiz-adv-x="1581" 
d="M670 0l-541 -2l88 637h-160l21 164h164l88 639h501q291 0 484 -181q194 -182 194 -460q0 -363 -233 -580q-230 -217 -606 -217zM414 635l-66 -449h334q271 0 448 160q175 159 175 434q0 212 -142 342q-141 129 -364 129h-297l-64 -452h402l-23 -164h-403z" />
    <glyph glyph-name="Ntilde" unicode="&#xd1;" horiz-adv-x="1454" 
d="M940 1751l-4 -2l43 -37q8 -8 25 -8q28 0 40 25q13 24 23 88h127q-9 -126 -55 -187t-135 -61q-46 0 -74 14q-32 14 -80 62q-22 29 -43 41q-17 10 -35 10q-36 0 -55 -29q-19 -34 -27 -92h-127q9 125 62 190q52 64 151 64q32 0 78 -17q37 -15 86 -61zM293 -2h-184l200 1440
h187l546 -1125l160 1125h184l-200 -1440h-191l-544 1120z" />
    <glyph glyph-name="Ograve" unicode="&#xd2;" horiz-adv-x="1699" 
d="M840 1567l-125 297h178l121 -297h-174zM352 1231l-2 -4q112 112 260 174q146 61 310 61q312 0 510 -192q202 -193 202 -494q0 -161 -61 -307q-62 -152 -174 -258q-112 -112 -260 -174t-310 -62q-310 0 -510 197t-200 492q0 161 61 307q62 148 174 260zM322 666l4 -4
q0 -218 145 -363q143 -143 369 -143q244 0 417 176t173 428q0 218 -148 366t-371 148q-245 0 -417 -178t-172 -430z" />
    <glyph glyph-name="Oacute" unicode="&#xd3;" horiz-adv-x="1699" 
d="M1042 1567h-186l209 297h186zM352 1231l-2 -4q112 112 260 174q146 61 310 61q312 0 510 -192q202 -193 202 -494q0 -161 -61 -307q-62 -152 -174 -258q-112 -112 -260 -174t-310 -62q-310 0 -510 197t-200 492q0 161 61 307q62 148 174 260zM322 666l4 -4
q0 -218 145 -363q143 -143 369 -143q244 0 417 176t173 428q0 218 -148 366t-371 148q-245 0 -417 -178t-172 -430z" />
    <glyph glyph-name="Ocircumflex" unicode="&#xd4;" horiz-adv-x="1699" 
d="M629 1567l278 297h168l199 -297h-162l-129 190l-180 -190h-174zM352 1231l-2 -4q112 112 260 174q146 61 310 61q312 0 510 -192q202 -193 202 -494q0 -161 -61 -307q-62 -152 -174 -258q-112 -112 -260 -174t-310 -62q-310 0 -510 197t-200 492q0 161 61 307
q62 148 174 260zM322 666l4 -4q0 -218 145 -363q143 -143 369 -143q244 0 417 176t173 428q0 218 -148 366t-371 148q-245 0 -417 -178t-172 -430z" />
    <glyph glyph-name="Otilde" unicode="&#xd5;" horiz-adv-x="1699" 
d="M352 1231l-2 -4q112 112 260 174q146 61 310 61q312 0 510 -192q202 -193 202 -494q0 -161 -61 -307q-62 -152 -174 -258q-112 -112 -260 -174t-310 -62q-310 0 -510 197t-200 492q0 161 61 307q62 148 174 260zM322 666l4 -4q0 -218 145 -363q143 -143 369 -143
q244 0 417 176t173 428q0 218 -148 366t-371 148q-245 0 -417 -178t-172 -430zM1022 1743l-4 -2l43 -37q8 -8 24 -8q29 0 41 24q13 24 23 88h127q-9 -125 -55 -186t-136 -61q-45 0 -73 14q-34 15 -80 61q-22 29 -43 41q-18 11 -35 11q-36 0 -55 -29q-19 -34 -27 -92h-127
q9 125 62 190q52 64 151 64q32 0 78 -17q37 -15 86 -61z" />
    <glyph glyph-name="Odieresis" unicode="&#xd6;" horiz-adv-x="1699" 
d="M352 1231l-2 -4q112 112 260 174q146 61 310 61q312 0 510 -192q202 -193 202 -494q0 -161 -61 -307q-62 -152 -174 -258q-112 -112 -260 -174t-310 -62q-310 0 -510 197t-200 492q0 161 61 307q62 148 174 260zM322 666l4 -4q0 -218 145 -363q143 -143 369 -143
q244 0 417 176t173 428q0 218 -148 366t-371 148q-245 0 -417 -178t-172 -430zM924 1692h-2q0 -47 -31 -78t-76 -31t-76 31q-30 30 -30 78q0 47 30 77q31 31 78 31q45 0 76 -31t31 -77zM1221 1692l-4 -4q0 -45 -31 -76t-76 -31t-76 31q-30 30 -30 78q0 47 30 77q31 31 78 31
t78 -31t31 -75z" />
    <glyph glyph-name="multiply" unicode="&#xd7;" horiz-adv-x="1167" 
d="M289 293l-107 106l320 320l-316 313l109 107l313 -314l314 314l108 -107l-315 -313l319 -320l-108 -106l-318 317z" />
    <glyph glyph-name="Oslash" unicode="&#xd8;" horiz-adv-x="1699" 
d="M453 72l-113 -135h-221l198 239q-94 94 -147 221q-51 119 -51 269q0 161 61 307q62 148 174 260t260 174q146 61 310 61q101 0 200 -24q98 -23 183 -74l112 139h221l-198 -241q96 -96 145 -221t49 -271q0 -161 -61 -307q-62 -152 -174 -258q-112 -112 -260 -174t-310 -62
q-102 0 -200 25q-88 23 -178 72zM911 1280l4 -4q-245 0 -417 -178t-172 -430q0 -100 30 -185q30 -83 93 -155l729 882q-55 34 -125 52q-68 18 -142 18zM844 160v-2q245 0 418 176q172 175 172 428q0 106 -33 188q-34 91 -94 160l-727 -885q56 -33 125 -49q75 -16 139 -16z
" />
    <glyph glyph-name="Ugrave" unicode="&#xd9;" horiz-adv-x="1404" 
d="M733 1567l-125 297h178l121 -297h-174zM1024 459l135 981h197l-142 -1002q-30 -211 -178 -338q-143 -125 -366 -125q-239 0 -387 154t-113 385l129 928h197l-129 -936q-21 -152 67 -246q90 -96 242 -96q138 0 233 80q97 82 115 215z" />
    <glyph glyph-name="Uacute" unicode="&#xda;" horiz-adv-x="1404" 
d="M1024 459l135 981h197l-142 -1002q-30 -211 -178 -338q-143 -125 -366 -125q-239 0 -387 154t-113 385l129 928h197l-129 -936q-21 -152 67 -246q90 -96 242 -96q138 0 233 80q97 82 115 215zM934 1567h-186l208 297h187z" />
    <glyph glyph-name="Ucircumflex" unicode="&#xdb;" horiz-adv-x="1404" 
d="M524 1567l279 297h168l198 -297h-161l-129 190l-181 -190h-174zM1024 459l135 981h197l-142 -1002q-30 -211 -178 -338q-143 -125 -366 -125q-239 0 -387 154t-113 385l129 928h197l-129 -936q-21 -152 67 -246q90 -96 242 -96q138 0 233 80q97 82 115 215z" />
    <glyph glyph-name="Udieresis" unicode="&#xdc;" horiz-adv-x="1404" 
d="M1024 459l135 981h197l-142 -1002q-30 -211 -178 -338q-143 -125 -366 -125q-239 0 -387 154t-113 385l129 928h197l-129 -936q-21 -152 67 -246q90 -96 242 -96q138 0 233 80q97 82 115 215zM815 1700h-2q0 -47 -31 -78t-75 -31q-45 0 -76 31t-31 78t31 78q30 30 78 30
q45 0 75 -30q31 -31 31 -78zM1112 1700l-4 -4q0 -45 -31 -76t-76 -31q-44 0 -75 31t-31 78t31 78q30 30 78 30q47 0 77 -30q31 -31 31 -76z" />
    <glyph glyph-name="Yacute" unicode="&#xdd;" horiz-adv-x="1290" 
d="M670 0h-197l74 524l-371 916h209l281 -713l483 713h219l-623 -903zM883 1567h-187l209 297h187z" />
    <glyph glyph-name="Thorn" unicode="&#xde;" horiz-adv-x="1337" 
d="M313 1440l195 -2l-37 -258h324q207 0 344 -119q139 -121 139 -303q0 -229 -162 -363q-164 -135 -420 -135h-350l-37 -260h-196zM1073 743l-2 -2q0 118 -88 191q-89 74 -223 74h-311l-80 -574h338q160 0 264 84q102 82 102 227z" />
    <glyph glyph-name="germandbls" unicode="&#xdf;" horiz-adv-x="1267" 
d="M987 453l-8 -11q0 118 -84 193q-83 74 -227 74h-121l18 147h131q127 0 217 78q86 77 86 196q0 105 -67 166q-68 62 -184 62q-126 0 -216 -78q-88 -76 -106 -209l-152 -1079h-188l150 1067q34 222 174 350q137 125 352 125q182 0 307 -104t125 -269q0 -131 -74 -231
q-73 -99 -205 -142q118 -41 185 -135t67 -215q0 -201 -131 -332q-133 -133 -327 -133q-77 0 -142 19q-55 14 -100 53l22 164q45 -34 99 -49q63 -17 108 -17q126 0 209 86q82 82 82 224z" />
    <glyph glyph-name="agrave" unicode="&#xe0;" horiz-adv-x="1110" 
d="M600 899v-2q-96 0 -166 -49q-69 -48 -104 -139h-185q47 159 177 252q134 96 294 96q198 0 299 -119q102 -120 68 -313l-102 -629h-179l21 129q-61 -73 -143 -113q-77 -39 -179 -39q-143 0 -235 80t-92 203q0 141 92 227t283 121l354 64q15 109 -37 170t-166 61zM256 270
v-4q0 -65 49 -102t135 -37q115 0 213 98q99 99 117 230l8 55l-301 -55q-110 -21 -166 -68q-55 -46 -55 -117zM508 1165l-125 297h178l121 -297h-174z" />
    <glyph glyph-name="aacute" unicode="&#xe1;" horiz-adv-x="1110" 
d="M600 899v-2q-96 0 -166 -49q-69 -48 -104 -139h-185q47 159 177 252q134 96 294 96q198 0 299 -119q102 -120 68 -313l-102 -629h-179l21 129q-61 -73 -143 -113q-77 -39 -179 -39q-143 0 -235 80t-92 203q0 141 92 227t283 121l354 64q15 109 -37 170t-166 61zM256 270
v-4q0 -65 49 -102t135 -37q115 0 213 98q99 99 117 230l8 55l-301 -55q-110 -21 -166 -68q-55 -46 -55 -117zM717 1165h-187l209 297h187z" />
    <glyph glyph-name="acircumflex" unicode="&#xe2;" horiz-adv-x="1110" 
d="M600 899v-2q-96 0 -166 -49q-69 -48 -104 -139h-185q47 159 177 252q134 96 294 96q198 0 299 -119q102 -120 68 -313l-102 -629h-179l21 129q-61 -73 -143 -113q-77 -39 -179 -39q-143 0 -235 80t-92 203q0 141 92 227t283 121l354 64q15 109 -37 170t-166 61zM256 270
v-4q0 -65 49 -102t135 -37q115 0 213 98q99 99 117 230l8 55l-301 -55q-110 -21 -166 -68q-55 -46 -55 -117zM297 1165l278 297h168l199 -297h-162l-129 191l-180 -191h-174z" />
    <glyph glyph-name="atilde" unicode="&#xe3;" horiz-adv-x="1110" 
d="M600 899v-2q-96 0 -166 -49q-69 -48 -104 -139h-185q47 159 177 252q134 96 294 96q198 0 299 -119q102 -120 68 -313l-102 -629h-179l21 129q-61 -73 -143 -113q-77 -39 -179 -39q-143 0 -235 80t-92 203q0 141 92 227t283 121l354 64q15 109 -37 170t-166 61zM256 270
v-4q0 -65 49 -102t135 -37q115 0 213 98q99 99 117 230l8 55l-301 -55q-110 -21 -166 -68q-55 -46 -55 -117zM702 1358l-4 -2l43 -37q8 -8 25 -8q29 0 41 24q12 21 22 88h127q-9 -125 -55 -186t-135 -61q-46 0 -74 14q-34 15 -80 61q-22 29 -43 41q-18 11 -34 11
q-37 0 -56 -29q-18 -32 -26 -92h-127q9 126 61 190t152 64q31 0 77 -17q37 -15 86 -61z" />
    <glyph glyph-name="adieresis" unicode="&#xe4;" horiz-adv-x="1110" 
d="M600 899v-2q-96 0 -166 -49q-69 -48 -104 -139h-185q47 159 177 252q134 96 294 96q198 0 299 -119q102 -120 68 -313l-102 -629h-179l21 129q-61 -73 -143 -113q-77 -39 -179 -39q-143 0 -235 80t-92 203q0 141 92 227t283 121l354 64q15 109 -37 170t-166 61zM256 270
v-4q0 -65 49 -102t135 -37q115 0 213 98q99 99 117 230l8 55l-301 -55q-110 -21 -166 -68q-55 -46 -55 -117zM596 1303h-2q0 -47 -31 -78t-76 -31q-44 0 -75 31t-31 78q0 46 31 77t77 31q45 0 76 -31t31 -77zM893 1303l-4 -5q0 -44 -31 -75t-76 -31q-44 0 -75 31t-31 77
q0 47 31 78t77 31q47 0 78 -31t31 -75z" />
    <glyph glyph-name="aring" unicode="&#xe5;" horiz-adv-x="1110" 
d="M600 899v-2q-96 0 -166 -49q-69 -48 -104 -139h-185q47 159 177 252q134 96 294 96q198 0 299 -119q102 -120 68 -313l-102 -629h-179l21 129q-61 -73 -143 -113q-77 -39 -179 -39q-143 0 -235 80t-92 203q0 141 92 227t283 121l354 64q15 109 -37 170t-166 61zM256 270
v-4q0 -65 49 -102t135 -37q115 0 213 98q99 99 117 230l8 55l-301 -55q-110 -21 -166 -68q-55 -46 -55 -117zM848 1350l-2 -4q0 -83 -62 -142q-57 -57 -147 -57q-89 0 -148 59t-59 142q0 82 62 141q65 59 147 59q90 0 147 -57q62 -59 62 -141zM547 1346l-2 -5q0 -41 26 -67
q27 -27 68 -27q39 0 68 29q28 28 28 67q0 42 -26 68q-29 29 -68 29q-41 0 -68 -27q-26 -26 -26 -67z" />
    <glyph glyph-name="ae" unicode="&#xe6;" horiz-adv-x="1933" 
d="M600 899l-4 -8q-96 0 -166 -49q-68 -48 -104 -140h-185q47 155 176 252q129 99 285 99q123 0 211 -49t129 -142q78 93 184 142q107 49 228 49q219 0 360 -144t141 -356v-45q0 -13 -4 -49h-886q6 -149 98 -238q96 -90 233 -90q108 0 191 47q80 45 133 141h192
q-71 -165 -208 -256q-139 -92 -314 -92q-150 0 -268 74q-115 71 -174 207q-53 -133 -168 -205q-118 -74 -266 -74q-151 0 -246 80q-94 79 -94 207q0 137 92 223t283 121l354 64q15 109 -37 170t-166 61zM1341 889l-4 2q-125 0 -219 -76q-97 -73 -139 -203h684
q-21 127 -109 203q-86 74 -213 74zM248 266v-2q0 -65 49 -102t137 -37q111 0 207 78q94 78 111 188l18 115l-301 -55q-110 -21 -166 -68q-55 -46 -55 -117z" />
    <glyph glyph-name="ccedilla" unicode="&#xe7;" horiz-adv-x="1239" 
d="M608 150l-12 -13q124 0 219 68q94 67 141 188h189q-55 -187 -184 -301t-312 -129l-69 -88q90 -3 145 -55t55 -135q0 -96 -67 -160q-64 -64 -168 -64q-102 0 -164 56t-62 143h144q0 -30 24 -51q21 -21 62 -21q36 0 65 29t29 66t-25 59q-28 22 -63 22q-21 0 -39 -6
q-20 -6 -39 -26l-104 67l139 176q-189 27 -313 166q-123 138 -123 330q0 247 166 416q167 170 411 170q201 0 342 -117q142 -118 166 -305h-182q-27 113 -117 182q-89 68 -205 68q-168 0 -278 -113q-111 -114 -111 -283q0 -136 97 -241q94 -98 243 -98z" />
    <glyph glyph-name="egrave" unicode="&#xe8;" horiz-adv-x="1236" 
d="M598 137l4 -4q108 0 191 47q79 44 133 142h192q-71 -164 -209 -256q-140 -93 -313 -93q-224 0 -369 142q-143 140 -143 356q0 244 166 416t405 172q220 0 361 -144t141 -356v-45q0 -13 -4 -49h-887q6 -148 99 -238q96 -90 233 -90zM653 893l-4 2q-125 0 -219 -76
q-97 -73 -139 -203h684q-21 127 -109 203q-86 74 -213 74zM561 1169l-125 297h178l121 -297h-174z" />
    <glyph glyph-name="eacute" unicode="&#xe9;" horiz-adv-x="1236" 
d="M770 1171h-186l209 297h186zM598 137l4 -4q108 0 191 47q79 44 133 142h192q-71 -164 -209 -256q-140 -93 -313 -93q-224 0 -369 142q-143 140 -143 356q0 244 166 416t405 172q220 0 361 -144t141 -356v-45q0 -13 -4 -49h-887q6 -148 99 -238q96 -90 233 -90zM653 893
l-4 2q-125 0 -219 -76q-97 -73 -139 -203h684q-21 127 -109 203q-86 74 -213 74z" />
    <glyph glyph-name="ecircumflex" unicode="&#xea;" horiz-adv-x="1236" 
d="M350 1171l279 297h168l198 -297h-161l-129 191l-181 -191h-174zM598 137l4 -4q108 0 191 47q79 44 133 142h192q-71 -164 -209 -256q-140 -93 -313 -93q-224 0 -369 142q-143 140 -143 356q0 244 166 416t405 172q220 0 361 -144t141 -356v-45q0 -13 -4 -49h-887
q6 -148 99 -238q96 -90 233 -90zM653 893l-4 2q-125 0 -219 -76q-97 -73 -139 -203h684q-21 127 -109 203q-86 74 -213 74z" />
    <glyph glyph-name="edieresis" unicode="&#xeb;" horiz-adv-x="1236" 
d="M649 1309h-2q0 -47 -31 -78t-75 -31q-45 0 -76 31t-31 78q0 46 31 77t78 31q44 0 75 -31t31 -77zM946 1309l-4 -4q0 -45 -31 -76t-75 -31q-45 0 -76 31t-31 78q0 46 31 77t78 31q46 0 77 -31t31 -75zM592 133l4 -4q107 0 190 47q81 46 134 141h192q-71 -164 -209 -256
q-139 -92 -313 -92q-224 0 -369 142q-143 140 -143 356q0 244 166 416t405 172q220 0 361 -144t141 -356v-45q0 -13 -4 -49h-887q6 -149 98 -238q96 -90 234 -90zM647 889l-4 2q-125 0 -219 -76q-97 -73 -139 -203h684q-21 127 -109 203q-86 74 -213 74z" />
    <glyph glyph-name="igrave" unicode="&#xec;" horiz-adv-x="524" 
d="M285 0h-189l146 1034h188zM242 1171l-125 297h178l121 -297h-174z" />
    <glyph glyph-name="iacute" unicode="&#xed;" horiz-adv-x="524" 
d="M451 1171h-187l209 297h186zM285 0h-189l146 1034h188z" />
    <glyph glyph-name="icircumflex" unicode="&#xee;" horiz-adv-x="524" 
d="M33 1171l278 297h168l199 -297h-162l-129 191l-180 -191h-174zM285 0h-189l146 1034h188z" />
    <glyph glyph-name="idieresis" unicode="&#xef;" horiz-adv-x="524" 
d="M332 1309h-2q0 -47 -31 -78t-76 -31t-76 31q-30 30 -30 78q0 47 30 77q31 31 78 31q45 0 76 -31t31 -77zM629 1309l-4 -4q0 -45 -31 -76t-76 -31t-76 31q-30 30 -30 78q0 47 30 77q31 31 78 31t78 -31t31 -75zM279 -4h-189l146 1034h188z" />
    <glyph glyph-name="eth" unicode="&#xf0;" horiz-adv-x="1286" 
d="M621 1182l14 106l164 62q-46 53 -84 86q-68 60 -90 77h190q41 -32 66 -57l59 -57l217 84l-14 -109l-135 -53q96 -124 145 -283q47 -158 47 -362q0 -308 -172 -504q-173 -197 -430 -197q-217 0 -369 146q-147 144 -147 356q0 227 166 393t391 166q124 0 223 -51
q104 -52 160 -141q-3 108 -43 215q-36 102 -113 213zM268 481h-6q0 -145 98 -239q105 -97 248 -97q160 0 275 115q114 114 114 277q0 145 -98 239q-94 94 -246 94q-158 0 -272 -114q-113 -113 -113 -275z" />
    <glyph glyph-name="ntilde" unicode="&#xf1;" horiz-adv-x="1222" 
d="M279 0l-185 -2l148 1034h178l-19 -123q65 71 148 109q81 37 176 37q194 0 293 -123t72 -322l-84 -612h-189l82 598q18 137 -43 213q-63 78 -190 78q-111 0 -197 -74q-85 -76 -100 -178zM784 1362l-4 -2l43 -37q8 -8 25 -8q29 0 41 24q12 21 22 88h127q-9 -125 -55 -186
t-135 -61q-46 0 -74 14q-34 15 -80 61q-22 29 -43 41q-18 11 -35 11q-36 0 -55 -29q-18 -32 -26 -92h-127q9 126 61 190t152 64q31 0 77 -17q37 -15 86 -61z" />
    <glyph glyph-name="ograve" unicode="&#xf2;" horiz-adv-x="1267" 
d="M1188 559h2q0 -246 -168 -414t-418 -168q-227 0 -375 142q-147 141 -147 356q0 244 168 412q170 170 418 170q224 0 372 -142t148 -356zM270 487l-2 -2q0 -142 99 -241t245 -99q163 0 277 117q112 112 112 283q0 145 -94 239q-95 99 -239 99q-170 0 -283 -113
q-115 -115 -115 -283zM584 1169l-125 297h178l121 -297h-174z" />
    <glyph glyph-name="oacute" unicode="&#xf3;" horiz-adv-x="1267" 
d="M793 1171h-187l209 297h186zM1188 559h2q0 -246 -168 -414t-418 -168q-227 0 -375 142q-147 141 -147 356q0 244 168 412q170 170 418 170q224 0 372 -142t148 -356zM270 487l-2 -2q0 -142 99 -241t245 -99q163 0 277 117q112 112 112 283q0 145 -94 239q-95 99 -239 99
q-170 0 -283 -113q-115 -115 -115 -283z" />
    <glyph glyph-name="ocircumflex" unicode="&#xf4;" horiz-adv-x="1267" 
d="M375 1171l278 297h168l199 -297h-162l-129 191l-180 -191h-174zM1188 559h2q0 -246 -168 -414t-418 -168q-227 0 -375 142q-147 141 -147 356q0 244 168 412q170 170 418 170q224 0 372 -142t148 -356zM270 487l-2 -2q0 -142 99 -241t245 -99q163 0 277 117
q112 112 112 283q0 145 -94 239q-95 99 -239 99q-170 0 -283 -113q-115 -115 -115 -283z" />
    <glyph glyph-name="otilde" unicode="&#xf5;" horiz-adv-x="1267" 
d="M1188 559h2q0 -246 -168 -414t-418 -168q-227 0 -375 142q-147 141 -147 356q0 244 168 412q170 170 418 170q224 0 372 -142t148 -356zM270 487l-2 -2q0 -142 99 -241t245 -99q163 0 277 117q112 112 112 283q0 145 -94 239q-95 99 -239 99q-170 0 -283 -113
q-115 -115 -115 -283zM780 1362l-4 -2l43 -37q8 -8 25 -8q29 0 41 24q12 21 22 88h127q-9 -125 -55 -186t-135 -61q-46 0 -74 14q-34 15 -80 61q-22 29 -43 41q-18 11 -35 11q-36 0 -55 -29q-19 -34 -27 -92h-127q9 125 62 190q52 64 151 64q32 0 78 -17q37 -15 86 -61z" />
    <glyph glyph-name="odieresis" unicode="&#xf6;" horiz-adv-x="1267" 
d="M674 1309h-2q0 -47 -31 -78t-76 -31t-76 31q-30 30 -30 78q0 47 30 77q31 31 78 31q45 0 76 -31t31 -77zM971 1309l-4 -4q0 -45 -31 -76t-76 -31t-76 31q-30 30 -30 78q0 47 30 77q31 31 78 31t78 -31t31 -75zM1182 555h2q0 -246 -168 -414t-418 -168q-227 0 -375 142
q-147 141 -147 356q0 244 168 412q170 170 418 170q224 0 372 -142t148 -356zM264 483l-2 -2q0 -143 98 -241q99 -99 246 -99q163 0 277 117q112 112 112 283q0 145 -94 239q-95 99 -239 99q-170 0 -283 -113q-115 -115 -115 -283z" />
    <glyph glyph-name="divide" unicode="&#xf7;" horiz-adv-x="1167" 
d="M741 1102l-4 -2q0 -51 -37 -88t-90 -37t-90 37t-37 90t37 90t92 37q56 0 93 -37q36 -36 36 -90zM145 639v152h924v-152h-924zM737 328l-4 -2q0 -51 -37 -88t-90 -37t-90 37t-37 90t37 90t92 37t92 -37t37 -90z" />
    <glyph glyph-name="oslash" unicode="&#xf8;" horiz-adv-x="1267" 
d="M350 33l-78 -99h-194l145 187q-67 67 -106 162q-37 90 -37 192q0 244 168 412q170 170 418 170q72 0 131 -15q60 -14 123 -43l75 99h195l-146 -187q76 -76 109 -161q37 -90 37 -193q0 -246 -168 -414t-418 -168q-76 0 -135 15q-59 14 -119 43zM664 885v2
q-170 0 -283 -113q-115 -115 -115 -282q0 -64 21 -119q21 -59 61 -105l461 588q-32 14 -70 23q-37 6 -75 6zM608 152v-5q163 0 277 117q112 112 112 283q0 66 -20 119q-20 56 -62 104l-460 -586q37 -16 73 -24q31 -8 80 -8z" />
    <glyph glyph-name="ugrave" unicode="&#xf9;" horiz-adv-x="1202" 
d="M926 1034l180 2l-145 -1034h-179l19 125q-61 -70 -142 -111q-74 -39 -170 -39q-184 0 -284 127q-99 126 -72 320l86 612h189l-84 -596q-18 -132 43 -211t178 -79q115 0 194 73q81 75 99 197zM563 1174l-125 296h178l121 -296h-174z" />
    <glyph glyph-name="uacute" unicode="&#xfa;" horiz-adv-x="1202" 
d="M778 1171h-186l209 297h186zM926 1034l180 2l-145 -1034h-179l19 125q-61 -70 -142 -111q-74 -39 -170 -39q-184 0 -284 127q-99 126 -72 320l86 612h189l-84 -596q-18 -132 43 -211t178 -79q115 0 194 73q81 75 99 197z" />
    <glyph glyph-name="ucircumflex" unicode="&#xfb;" horiz-adv-x="1202" 
d="M360 1171l279 297h168l199 -297h-162l-129 191l-180 -191h-175zM926 1034l180 2l-145 -1034h-179l19 125q-61 -70 -142 -111q-74 -39 -170 -39q-184 0 -284 127q-99 126 -72 320l86 612h189l-84 -596q-18 -132 43 -211t178 -79q115 0 194 73q81 75 99 197z" />
    <glyph glyph-name="udieresis" unicode="&#xfc;" horiz-adv-x="1202" 
d="M659 1309h-2q0 -48 -30 -78q-31 -31 -76 -31t-76 31t-31 78q0 46 31 77t78 31q45 0 76 -31q30 -30 30 -77zM956 1309l-4 -4q0 -46 -30 -76q-31 -31 -76 -31t-76 31t-31 78q0 46 31 77t78 31t78 -31q30 -30 30 -75zM920 1030l180 2l-146 -1034h-178l19 125
q-61 -70 -142 -111q-74 -39 -170 -39q-184 0 -284 127q-99 126 -72 320l86 612h188l-84 -596q-18 -132 43 -211q62 -80 179 -80q114 0 194 74t98 197z" />
    <glyph glyph-name="yacute" unicode="&#xfd;" horiz-adv-x="1079" 
d="M913 1034h199l-764 -1468h-194l219 424l-262 1044h194l193 -813zM723 1171h-186l208 297h187z" />
    <glyph glyph-name="thorn" unicode="&#xfe;" 
d="M1274 571q0 -258 -162 -426q-163 -172 -401 -172q-137 0 -238 58q-103 57 -166 162l-88 -629h-188l274 1952h189l-86 -623q74 80 172 123t211 43q212 0 348 -139q135 -138 135 -349zM1077 553v2q0 144 -96 240t-240 96q-163 0 -278 -115q-113 -113 -113 -282
q0 -142 96 -246q94 -98 246 -98q165 0 275 116t110 287z" />
    <glyph glyph-name="ydieresis" unicode="&#xff;" horiz-adv-x="1079" 
d="M913 1034h199l-764 -1468h-194l219 424l-262 1044h194l193 -813zM604 1309h-2q0 -47 -31 -78t-75 -31q-45 0 -76 31t-31 78q0 46 31 77t78 31q44 0 75 -31t31 -77zM901 1309l-4 -4q0 -45 -31 -76t-75 -31q-45 0 -76 31t-31 78q0 46 31 77t78 31q46 0 77 -31t31 -75z" />
    <glyph glyph-name="Amacron" unicode="&#x100;" horiz-adv-x="1384" 
d="M715 1440h209l348 -1440h-207l-80 352h-637l-180 -352h-207zM946 518l-158 696l-356 -696h514zM1112 1622h-551l19 129h550z" />
    <glyph glyph-name="amacron" unicode="&#x101;" horiz-adv-x="1110" 
d="M600 899v-2q-96 0 -166 -49q-69 -48 -104 -139h-185q47 159 177 252q134 96 294 96q198 0 299 -119q102 -120 68 -313l-102 -629h-179l21 129q-61 -73 -143 -113q-77 -39 -179 -39q-143 0 -235 80t-92 203q0 141 92 227t283 121l354 64q15 109 -37 170t-166 61zM256 270
v-4q0 -65 49 -102t135 -37q115 0 213 98q99 99 117 230l8 55l-301 -55q-110 -21 -166 -68q-55 -46 -55 -117zM903 1225h-551l19 129h551z" />
    <glyph glyph-name="Abreve" unicode="&#x102;" horiz-adv-x="1384" 
d="M715 1440h209l348 -1440h-207l-80 352h-637l-180 -352h-207zM946 518l-158 696l-356 -696h514zM862 1548l4 -2q-131 0 -215 84q-82 82 -82 209h140q0 -76 41 -123t114 -47q74 0 115 47t41 123h139q0 -127 -82 -209t-215 -82z" />
    <glyph glyph-name="abreve" unicode="&#x103;" horiz-adv-x="1110" 
d="M600 899v-2q-96 0 -166 -49q-69 -48 -104 -139h-185q47 159 177 252q134 96 294 96q198 0 299 -119q102 -120 68 -313l-102 -629h-179l21 129q-61 -73 -143 -113q-77 -39 -179 -39q-143 0 -235 80t-92 203q0 141 92 227t283 121l354 64q15 109 -37 170t-166 61zM256 270
v-4q0 -65 49 -102t135 -37q115 0 213 98q99 99 117 230l8 55l-301 -55q-110 -21 -166 -68q-55 -46 -55 -117zM639 1149l4 -2q-131 0 -215 84q-82 82 -82 209h139q0 -76 41 -123t115 -47t115 47t41 123h139q0 -127 -82 -209t-215 -82z" />
    <glyph glyph-name="Aogonek" unicode="&#x104;" horiz-adv-x="1384" 
d="M715 1440l209 -6l348 -1440h-43q-123 -117 -178 -191q-52 -70 -52 -122q0 -38 23 -58q21 -18 68 -18q23 0 47 6l49 16l-19 -127q-18 -13 -51 -24q-24 -8 -63 -8q-95 0 -156 49t-61 129q0 85 45 153q45 74 184 201l-80 352h-637l-180 -352h-207zM946 512l-158 696
l-356 -696h514z" />
    <glyph glyph-name="aogonek" unicode="&#x105;" horiz-adv-x="1110" 
d="M686 -530v-7q-94 0 -156 50q-61 49 -61 129q0 85 45 153q51 77 186 201l21 127q-61 -73 -143 -113q-77 -39 -179 -39q-143 0 -235 80t-92 203q0 141 92 227t282 121l355 64q15 109 -37 170t-166 61q-96 0 -166 -49q-69 -48 -104 -139h-185q48 160 176 252q134 96 295 96
q198 0 299 -119q102 -120 68 -313l-102 -629h-17q-123 -117 -178 -191q-51 -68 -51 -122q0 -39 22 -58q21 -18 68 -18q23 0 47 6l49 16l-18 -127q-18 -13 -51 -24q-24 -8 -64 -8zM256 266v-4q0 -65 49 -102t135 -37q115 0 213 98q99 99 117 230l8 55l-301 -55
q-110 -21 -166 -68q-55 -46 -55 -117z" />
    <glyph glyph-name="Cacute" unicode="&#x106;" horiz-adv-x="1648" 
d="M1378 565l211 -4q-77 -269 -286 -428q-210 -160 -480 -160q-304 0 -504 197q-198 195 -198 489q0 159 59 310q60 147 170 260q106 112 258 174q146 61 307 61q271 0 461 -159q191 -162 232 -408h-209q-43 169 -178 274t-316 105q-240 0 -409 -178q-170 -182 -170 -430
q0 -219 141 -363q140 -143 360 -143q182 0 332 108q148 107 219 295zM1026 1563h-186l209 297h186z" />
    <glyph glyph-name="cacute" unicode="&#x107;" horiz-adv-x="1239" 
d="M778 1171h-186l209 297h186zM608 150l-8 -5q124 0 219 68q96 68 142 188h188q-61 -203 -207 -319q-143 -113 -350 -113q-217 0 -369 146q-147 144 -147 356q0 247 166 416q167 170 411 170q201 0 342 -117q142 -118 166 -305h-182q-27 113 -117 182q-89 68 -205 68
q-168 0 -278 -113q-111 -114 -111 -283q0 -136 97 -241q94 -98 243 -98z" />
    <glyph glyph-name="Ccircumflex" unicode="&#x108;" horiz-adv-x="1648" 
d="M1378 565l211 -4q-77 -269 -286 -428q-210 -160 -480 -160q-304 0 -504 197q-198 195 -198 489q0 159 59 310q60 147 170 260q106 112 258 174q146 61 307 61q271 0 461 -159q191 -162 232 -408h-209q-43 169 -178 274t-316 105q-240 0 -409 -178q-170 -182 -170 -430
q0 -219 141 -363q140 -143 360 -143q182 0 332 108q148 107 219 295zM612 1563l279 297h168l198 -297h-161l-129 190l-181 -190h-174z" />
    <glyph glyph-name="ccircumflex" unicode="&#x109;" horiz-adv-x="1239" 
d="M360 1171l279 297h168l199 -297h-162l-129 191l-180 -191h-175zM608 150l-8 -5q124 0 219 68q96 68 142 188h188q-61 -203 -207 -319q-143 -113 -350 -113q-217 0 -369 146q-147 144 -147 356q0 247 166 416q167 170 411 170q201 0 342 -117q142 -118 166 -305h-182
q-27 113 -117 182q-89 68 -205 68q-168 0 -278 -113q-111 -114 -111 -283q0 -136 97 -241q94 -98 243 -98z" />
    <glyph glyph-name="Cdotaccent" unicode="&#x10a;" horiz-adv-x="1648" 
d="M1063 1708q0 -50 -37 -84q-41 -35 -86 -35q-49 0 -84 35t-35 84q0 45 35 86q34 37 84 37q49 0 86 -37t37 -86zM1378 565l211 -4q-77 -269 -286 -428q-210 -160 -480 -160q-304 0 -504 197q-198 195 -198 489q0 159 59 310q60 147 170 260q106 112 258 174q146 61 307 61
q271 0 461 -159q191 -162 232 -408h-209q-43 169 -178 274t-316 105q-240 0 -409 -178q-170 -182 -170 -430q0 -219 141 -363q140 -143 360 -143q182 0 332 108q148 107 219 295z" />
    <glyph glyph-name="cdotaccent" unicode="&#x10b;" horiz-adv-x="1239" 
d="M608 150l-8 -5q124 0 219 68q96 68 142 188h188q-61 -203 -207 -319q-143 -113 -350 -113q-217 0 -369 146q-147 144 -147 356q0 247 166 416q167 170 411 170q201 0 342 -117q142 -118 166 -305h-182q-27 113 -117 182q-89 68 -205 68q-168 0 -278 -113
q-111 -114 -111 -283q0 -136 97 -241q94 -98 243 -98zM809 1313q0 -50 -37 -84q-41 -35 -86 -35q-49 0 -84 35t-35 84q0 45 35 86q34 37 84 37q49 0 86 -37t37 -86z" />
    <glyph glyph-name="Ccaron" unicode="&#x10c;" horiz-adv-x="1648" 
d="M1378 565l211 -4q-77 -269 -286 -428q-210 -160 -480 -160q-304 0 -504 197q-198 195 -198 489q0 159 59 310q60 147 170 260q106 112 258 174q146 61 307 61q271 0 461 -159q191 -162 232 -408h-209q-43 169 -178 274t-316 105q-240 0 -409 -178q-170 -182 -170 -430
q0 -219 141 -363q140 -143 360 -143q182 0 332 108q148 107 219 295zM1305 1860l-279 -297h-168l-199 297h162l129 -191l180 191h175z" />
    <glyph glyph-name="ccaron" unicode="&#x10d;" horiz-adv-x="1239" 
d="M1049 1468l-279 -297h-168l-199 297h162l129 -190l180 190h175zM608 150l-8 -5q124 0 219 68q96 68 142 188h188q-61 -203 -207 -319q-143 -113 -350 -113q-217 0 -369 146q-147 144 -147 356q0 247 166 416q167 170 411 170q201 0 342 -117q142 -118 166 -305h-182
q-27 113 -117 182q-89 68 -205 68q-168 0 -278 -113q-111 -114 -111 -283q0 -136 97 -241q94 -98 243 -98z" />
    <glyph glyph-name="Dcaron" unicode="&#x10e;" horiz-adv-x="1562" 
d="M651 0l-540 -2l200 1440h502q290 0 483 -181q195 -183 195 -460q0 -363 -234 -580q-230 -217 -606 -217zM483 1251l-153 -1065h334q271 0 448 160q174 158 174 434q0 213 -141 342t-365 129h-297zM1229 1864l-279 -297h-168l-198 297h161l129 -191l181 191h174z" />
    <glyph glyph-name="dcaron" unicode="&#x10f;" horiz-adv-x="1402" 
d="M1712 1343l-133 -264h-121l121 232q-36 9 -59 41q-23 38 -23 67q0 51 35 86t86 35t86 -35t35 -84q0 -14 -6 -32q-7 -23 -21 -46zM1333 1516l-217 -1522h-178l23 153q-79 -86 -179 -131q-96 -45 -215 -45q-211 0 -348 140q-135 138 -135 348q0 258 162 426
q163 172 401 172q137 0 238 -58q104 -58 166 -161l94 678h188zM276 475v-4q0 -143 97 -240q94 -94 239 -94q164 0 279 115q113 113 113 283q0 140 -97 245q-95 99 -245 99q-164 0 -275 -117t-111 -287z" />
    <glyph glyph-name="Dcroat" unicode="&#x110;" horiz-adv-x="1581" 
d="M670 0l-541 -2l88 637h-160l21 164h164l88 639h501q291 0 484 -181q194 -182 194 -460q0 -363 -233 -580q-230 -217 -606 -217zM414 635l-66 -449h334q271 0 448 160q175 159 175 434q0 212 -142 342q-141 129 -364 129h-297l-64 -452h402l-23 -164h-403z" />
    <glyph glyph-name="dcroat" unicode="&#x111;" 
d="M1286 1198l-172 -1202h-178l22 154q-82 -88 -178 -132q-96 -45 -215 -45q-211 0 -348 140q-135 138 -135 348q0 258 162 426q163 172 401 172q137 0 238 -58q104 -58 166 -161l49 358h-418l22 154h418l23 166h188l-22 -166h145l-22 -154h-146zM274 477v-4q0 -143 97 -240
q94 -94 239 -94q164 0 279 115q112 112 112 283q0 141 -96 245q-95 99 -246 99q-163 0 -274 -117t-111 -287z" />
    <glyph glyph-name="Emacron" unicode="&#x112;" horiz-adv-x="1185" 
d="M1001 0h-888l202 1440h879l-27 -180h-680l-63 -441h633l-25 -172h-631l-67 -467h692zM1049 1622h-551l18 129h551z" />
    <glyph glyph-name="emacron" unicode="&#x113;" horiz-adv-x="1236" 
d="M598 137l4 -4q108 0 191 47q79 44 133 142h192q-71 -164 -209 -256q-140 -93 -313 -93q-224 0 -369 142q-143 140 -143 356q0 244 166 416t405 172q220 0 361 -144t141 -356v-45q0 -13 -4 -49h-887q6 -148 99 -238q96 -90 233 -90zM653 893l-4 2q-125 0 -219 -76
q-97 -73 -139 -203h684q-21 127 -109 203q-86 74 -213 74zM956 1229h-550l18 129h551z" />
    <glyph glyph-name="Ebreve" unicode="&#x114;" horiz-adv-x="1185" 
d="M1001 0h-888l202 1440h879l-27 -180h-680l-63 -441h633l-25 -172h-631l-67 -467h692zM799 1548l4 -2q-131 0 -215 84q-82 82 -82 209h139q0 -76 41 -123t115 -47q73 0 114 47t41 123h140q0 -127 -82 -209t-215 -82z" />
    <glyph glyph-name="ebreve" unicode="&#x115;" horiz-adv-x="1236" 
d="M598 137l4 -4q108 0 191 47q79 44 133 142h192q-71 -164 -209 -256q-140 -93 -313 -93q-224 0 -369 142q-143 140 -143 356q0 244 166 416t405 172q220 0 361 -144t141 -356v-45q0 -13 -4 -49h-887q6 -148 99 -238q96 -90 233 -90zM653 893l-4 2q-125 0 -219 -76
q-97 -73 -139 -203h684q-21 127 -109 203q-86 74 -213 74zM692 1153l4 -2q-131 0 -215 84q-82 82 -82 209h140q0 -76 41 -123t114 -47q74 0 115 47t41 123h139q0 -127 -82 -209t-215 -82z" />
    <glyph glyph-name="Edotaccent" unicode="&#x116;" horiz-adv-x="1185" 
d="M903 1708q0 -50 -37 -84q-41 -35 -86 -35q-49 0 -84 35q-34 34 -34 84q0 46 34 86q34 37 84 37q49 0 86 -37t37 -86zM1001 0h-888l202 1440h879l-27 -180h-680l-63 -441h633l-25 -172h-631l-67 -467h692z" />
    <glyph glyph-name="edotaccent" unicode="&#x117;" horiz-adv-x="1236" 
d="M598 137l4 -4q108 0 191 47q79 44 133 142h192q-71 -164 -209 -256q-140 -93 -313 -93q-224 0 -369 142q-143 140 -143 356q0 244 166 416t405 172q220 0 361 -144t141 -356v-45q0 -13 -4 -49h-887q6 -148 99 -238q96 -90 233 -90zM653 893l-4 2q-125 0 -219 -76
q-97 -73 -139 -203h684q-21 127 -109 203q-86 74 -213 74zM807 1315q0 -50 -37 -84q-41 -35 -86 -35q-49 0 -84 35t-35 84q0 45 35 86q34 37 84 37q49 0 86 -37t37 -86z" />
    <glyph glyph-name="Eogonek" unicode="&#x118;" horiz-adv-x="1185" 
d="M782 0l-669 -6l202 1440h879l-27 -181h-680l-63 -440h633l-25 -172h-631l-67 -467h692l-25 -180h-55q-123 -117 -178 -191q-51 -68 -51 -122q0 -39 22 -58q21 -18 68 -18q23 0 47 6l49 16l-18 -127q-18 -13 -51 -24q-24 -8 -64 -8q-95 0 -156 49t-61 129q0 85 45 153
q45 74 184 201z" />
    <glyph glyph-name="eogonek" unicode="&#x119;" horiz-adv-x="1236" 
d="M922 326l192 -7q-24 -67 -76 -133q-44 -55 -172 -163q-106 -88 -172 -181q-57 -80 -57 -159q0 -36 25 -58q20 -20 67 -20q25 0 49 6l47 16l-20 -131q-33 -19 -62 -26q-27 -9 -69 -9q-83 0 -142 56q-57 54 -57 131q0 72 41 149q42 76 141 178q-6 -2 -30 -2h-31
q-224 0 -369 142q-143 140 -143 356q0 244 166 416t405 172q220 0 361 -144t141 -356v-45q0 -13 -4 -49h-887q6 -148 99 -238q96 -90 233 -90q107 0 190 47q80 45 134 142zM649 891l-4 2q-125 0 -219 -76q-97 -73 -139 -203h684q-21 127 -109 203q-86 74 -213 74z" />
    <glyph glyph-name="Ecaron" unicode="&#x11a;" horiz-adv-x="1185" 
d="M1001 0h-888l202 1440h879l-27 -180h-680l-63 -441h633l-25 -172h-631l-67 -467h692zM1143 1864l-279 -297h-168l-198 297h161l129 -191l181 191h174z" />
    <glyph glyph-name="ecaron" unicode="&#x11b;" horiz-adv-x="1236" 
d="M1038 1468l-278 -297h-168l-199 297h162l129 -190l180 190h174zM598 137l4 -4q108 0 191 47q79 44 133 142h192q-71 -164 -209 -256q-140 -93 -313 -93q-224 0 -369 142q-143 140 -143 356q0 244 166 416t405 172q220 0 361 -144t141 -356v-45q0 -13 -4 -49h-887
q6 -148 99 -238q96 -90 233 -90zM653 893l-4 2q-125 0 -219 -76q-97 -73 -139 -203h684q-21 127 -109 203q-86 74 -213 74z" />
    <glyph glyph-name="Gcircumflex" unicode="&#x11c;" horiz-adv-x="1654" 
d="M600 1567l279 297h168l198 -297h-162l-129 190l-180 -190h-174zM1559 723l-103 -717h-164l31 223q-91 -119 -227 -184q-129 -63 -301 -63q-297 0 -488 194q-190 193 -190 486q0 158 59 309q60 148 166 260q111 114 256 176q143 61 305 61q247 0 436 -139
q185 -140 236 -366h-213q-52 146 -174 233q-124 86 -287 86q-239 0 -407 -180t-168 -436q0 -228 141 -369t373 -141q191 0 325 104q136 107 195 301h-529l21 162h707z" />
    <glyph glyph-name="gcircumflex" unicode="&#x11d;" horiz-adv-x="1288" 
d="M354 1171l279 297h168l198 -297h-161l-129 191l-181 -191h-174zM18 -49l181 -4q3 -119 92 -187q88 -67 233 -67q130 0 226 78q92 77 110 206l31 216q-71 -72 -154 -109q-84 -37 -182 -37q-199 0 -332 133t-133 324q0 229 152 395q151 160 372 160q121 0 224 -53
q100 -55 155 -152l25 180h180l-147 -1048q-27 -203 -170 -328q-141 -123 -355 -123q-219 0 -364 115q-141 117 -144 301zM592 211l-4 -2q149 0 252 106q104 107 104 258q0 138 -88 226q-90 90 -227 90q-145 0 -246 -107q-100 -106 -100 -258q0 -141 86 -227t223 -86z" />
    <glyph glyph-name="Gbreve" unicode="&#x11e;" horiz-adv-x="1654" 
d="M1559 723l-103 -717h-164l31 223q-91 -119 -227 -184q-129 -63 -301 -63q-297 0 -488 194q-190 193 -190 486q0 158 59 309q60 148 166 260q111 114 256 176q143 61 305 61q247 0 436 -139q185 -140 236 -366h-213q-52 146 -174 233q-124 86 -287 86q-239 0 -407 -180
t-168 -436q0 -228 141 -369t373 -141q191 0 325 104q136 107 195 301h-529l21 162h707zM946 1554l4 -2q-131 0 -215 84q-82 82 -82 209h140q0 -76 41 -123t114 -47q74 0 115 47t41 123h139q0 -127 -82 -209t-215 -82z" />
    <glyph glyph-name="gbreve" unicode="&#x11f;" horiz-adv-x="1288" 
d="M18 -49l181 -4q3 -119 92 -187q88 -67 233 -67q130 0 226 78q92 77 110 206l31 216q-71 -72 -154 -109q-84 -37 -182 -37q-199 0 -332 133t-133 324q0 229 152 395q151 160 372 160q121 0 224 -53q100 -55 155 -152l25 180h180l-147 -1048q-27 -203 -170 -328
q-141 -123 -355 -123q-219 0 -364 115q-141 117 -144 301zM592 211l-4 -2q149 0 252 106q104 107 104 258q0 138 -88 226q-90 90 -227 90q-145 0 -246 -107q-100 -106 -100 -258q0 -141 86 -227t223 -86zM688 1149l4 -2q-131 0 -215 84q-82 82 -82 209h140q0 -77 40 -123
q41 -47 115 -47t115 47t41 123h139q0 -127 -82 -209t-215 -82z" />
    <glyph glyph-name="Gdotaccent" unicode="&#x120;" horiz-adv-x="1654" 
d="M1053 1708q0 -50 -37 -84q-41 -35 -86 -35q-49 0 -84 35t-35 84q0 45 35 86q34 37 84 37q49 0 86 -37t37 -86zM1559 723l-103 -717h-164l31 223q-91 -119 -227 -184q-129 -63 -301 -63q-297 0 -488 194q-190 193 -190 486q0 158 59 309q60 148 166 260q111 114 256 176
q143 61 305 61q247 0 436 -139q185 -140 236 -366h-213q-52 146 -174 233q-124 86 -287 86q-239 0 -407 -180t-168 -436q0 -228 141 -369t373 -141q191 0 325 104q136 107 195 301h-529l21 162h707z" />
    <glyph glyph-name="gdotaccent" unicode="&#x121;" horiz-adv-x="1288" 
d="M18 -49l181 -4q3 -119 92 -187q88 -67 233 -67q130 0 226 78q92 77 110 206l31 216q-71 -72 -154 -109q-84 -37 -182 -37q-199 0 -332 133t-133 324q0 229 152 395q151 160 372 160q121 0 224 -53q100 -55 155 -152l25 180h180l-147 -1048q-27 -203 -170 -328
q-141 -123 -355 -123q-219 0 -364 115q-141 117 -144 301zM592 211l-4 -2q149 0 252 106q104 107 104 258q0 138 -88 226q-90 90 -227 90q-145 0 -246 -107q-100 -106 -100 -258q0 -141 86 -227t223 -86zM803 1311q0 -50 -37 -84q-41 -35 -86 -35q-49 0 -84 35t-35 84
q0 45 35 86q34 37 84 37q49 0 86 -37t37 -86z" />
    <glyph glyph-name="uni0122" unicode="&#x122;" horiz-adv-x="1654" 
d="M868 -291l-90 -237h-106l78 180q-38 9 -62 39t-24 67q0 48 30 78q31 31 78 31q49 0 80 -31t31 -78q0 -14 -2 -18zM1565 721l-103 -717h-164l31 223q-91 -119 -227 -184q-129 -63 -301 -63q-297 0 -488 194q-190 193 -190 485q0 159 59 310q60 148 166 260
q111 114 256 176q143 61 305 61q248 0 437 -139q184 -140 235 -366h-213q-52 146 -174 233q-124 86 -287 86q-239 0 -407 -180t-168 -436q0 -228 141 -369t373 -141q191 0 325 104q136 107 195 301h-528l20 162h707z" />
    <glyph glyph-name="uni0123" unicode="&#x123;" horiz-adv-x="1288" 
d="M592 1378l121 213h110l-106 -184q38 -12 53 -39q18 -27 18 -61q0 -48 -30 -78q-31 -31 -78 -31q-49 0 -80 31t-31 78q0 16 6 34zM16 -51l181 -4q3 -119 92 -187q88 -67 233 -67q130 0 226 78q92 77 110 206l31 215q-70 -70 -154 -108q-84 -37 -182 -37q-199 0 -332 133
t-133 324q0 229 152 395q151 160 372 160q121 0 224 -53q100 -55 155 -152l25 180h180l-147 -1048q-27 -203 -170 -328q-141 -123 -355 -123q-219 0 -364 115q-141 117 -144 301zM590 209l-4 -2q149 0 252 106q104 107 104 258q0 138 -88 226q-90 90 -227 90
q-145 0 -246 -107q-100 -106 -100 -258q0 -141 86 -227t223 -86z" />
    <glyph glyph-name="Hcircumflex" unicode="&#x124;" horiz-adv-x="1452" 
d="M309 0h-196l202 1440h197l-86 -609h684l84 609h197l-203 -1440h-195l90 645h-684zM547 1567l278 297h168l199 -297h-162l-129 190l-180 -190h-174z" />
    <glyph glyph-name="hcircumflex" unicode="&#x125;" horiz-adv-x="1222" 
d="M96 1655l279 297h168l198 -297h-161l-129 190l-181 -190h-174zM281 0l-187 -2l213 1518h189l-84 -592q61 61 143 98q84 35 168 35q194 0 293 -123q98 -122 71 -322l-83 -612h-189l82 598q18 137 -43 213q-63 78 -190 78q-112 0 -195 -74t-98 -178z" />
    <glyph glyph-name="Hbar" unicode="&#x126;" horiz-adv-x="1492" 
d="M330 0h-197l146 1032h-160l24 158h158l35 250h196l-34 -250h682l34 250h197l-35 -250h158l-23 -158h-157l-146 -1032h-194l90 645h-684zM475 1032l-29 -201h684l29 201h-684z" />
    <glyph glyph-name="hbar" unicode="&#x127;" horiz-adv-x="1222" 
d="M281 0l-187 -2l168 1198h-145l22 154h146l22 166h189l-23 -166h418l-23 -154h-417l-39 -272q61 61 143 98q84 35 168 35q194 0 293 -123q98 -122 71 -322l-83 -612h-189l82 598q18 137 -43 213q-63 78 -190 78q-112 0 -195 -74t-98 -178z" />
    <glyph glyph-name="Itilde" unicode="&#x128;" horiz-adv-x="573" 
d="M309 0h-196l202 1440h197zM498 1751l-4 -2l43 -37q8 -8 24 -8q29 0 41 25q13 24 23 88h127q-9 -125 -56 -187q-46 -61 -135 -61q-46 0 -74 14q-30 13 -79 62q-22 29 -43 41q-17 10 -35 10q-37 0 -56 -29q-18 -32 -26 -92h-127q9 126 61 190t152 64q32 0 78 -17
q37 -15 86 -61z" />
    <glyph glyph-name="itilde" unicode="&#x129;" horiz-adv-x="524" 
d="M285 0h-189l146 1034h188zM438 1364l-4 -2l43 -37q8 -8 25 -8q29 0 41 24q11 21 22 89h127q-9 -126 -55 -187t-135 -61q-46 0 -74 14q-34 15 -80 61q-22 29 -43 41q-18 11 -35 11q-36 0 -55 -29q-19 -34 -27 -92h-127q9 125 62 190q52 64 151 64q32 0 78 -17
q37 -15 86 -61z" />
    <glyph glyph-name="Imacron" unicode="&#x12a;" horiz-adv-x="573" 
d="M309 0h-196l202 1440h197zM707 1622h-551l18 129h551z" />
    <glyph glyph-name="imacron" unicode="&#x12b;" horiz-adv-x="524" 
d="M285 0h-189l146 1034h188zM639 1231h-551l18 129h551z" />
    <glyph glyph-name="Iogonek" unicode="&#x12e;" horiz-adv-x="573" 
d="M233 -371l-18 -133q-18 -13 -51 -24q-27 -9 -64 -9q-93 0 -155 50t-62 129q0 85 45 153q44 72 185 201l202 1440h197l-203 -1440h-33q-123 -117 -178 -191q-51 -68 -51 -122q0 -38 23 -58q21 -18 67 -18q23 0 47 6z" />
    <glyph glyph-name="iogonek" unicode="&#x12f;" horiz-adv-x="524" 
d="M248 1364v-2q0 57 37 94t98 37q59 0 96 -37t37 -92t-37 -92t-96 -37q-61 0 -98 37t-37 92zM217 -373l-18 -133q-18 -12 -52 -24q-27 -9 -63 -9q-94 0 -156 50q-61 49 -61 129q0 85 45 153q45 74 184 201l146 1034h188l-145 -1034h-25q-123 -117 -178 -191
q-51 -68 -51 -122q0 -39 22 -58q21 -18 68 -18q23 0 47 6z" />
    <glyph glyph-name="Idotaccent" unicode="&#x130;" horiz-adv-x="573" 
d="M309 0h-196l202 1440h197zM561 1708q0 -50 -37 -84q-41 -35 -86 -35q-49 0 -84 35t-35 84q0 45 35 86q34 37 84 37q49 0 86 -37t37 -86z" />
    <glyph glyph-name="dotlessi" unicode="&#x131;" horiz-adv-x="524" 
d="M285 0h-189l146 1034h188z" />
    <glyph glyph-name="IJ" unicode="&#x132;" horiz-adv-x="1746" 
d="M309 0h-196l202 1440h197zM1501 1440h197l-144 -1020q-27 -204 -165 -324q-139 -121 -338 -121q-208 0 -338 136t-115 346h195q-6 -133 67 -215t201 -82q125 0 201 76q80 77 98 202z" />
    <glyph glyph-name="ij" unicode="&#x133;" horiz-adv-x="1058" 
d="M248 1364v-2q0 57 37 94t98 37q59 0 96 -37t37 -92t-37 -92t-96 -37q-61 0 -98 37t-37 92zM285 -2h-189l146 1034h188zM1040 1366q0 -52 -36 -88q-37 -37 -93 -37q-51 0 -92 35q-37 34 -37 90t37 90q41 35 92 35q56 0 93 -37q36 -36 36 -88zM618 -80l156 1108h191
l-160 -1126q-26 -188 -119 -281q-96 -90 -258 -90q-16 0 -66 4l-51 6l23 164q4 -2 33 -2h36q95 0 148 53q52 52 67 164z" />
    <glyph glyph-name="Jcircumflex" unicode="&#x134;" horiz-adv-x="1173" 
d="M928 1440h196l-143 -1020q-27 -203 -166 -324t-338 -121q-208 0 -338 136q-129 135 -114 346h194q-6 -132 68 -215q73 -82 200 -82q125 0 201 76q80 77 98 202zM721 1567l278 297h168l199 -297h-162l-129 190l-180 -190h-174z" />
    <glyph glyph-name="jcircumflex" unicode="&#x135;" horiz-adv-x="538" 
d="M47 1171l279 297h168l198 -297h-162l-129 191l-180 -191h-174zM98 -78l156 1108h190l-159 -1126q-26 -188 -119 -281q-96 -90 -258 -90q-16 0 -66 4l-51 6l23 164q4 -2 32 -2h37q95 0 148 53q52 52 67 164z" />
    <glyph glyph-name="uni0136" unicode="&#x136;" horiz-adv-x="1216" 
d="M666 -291l-91 -237h-106l78 180q-38 9 -62 39t-24 67q0 47 31 78t77 31q49 0 80 -31t31 -78q0 -14 -2 -18zM322 1438h196l-92 -647l666 647h254l-730 -703l529 -737h-238l-493 692l-99 -692h-196z" />
    <glyph glyph-name="uni0137" unicode="&#x137;" horiz-adv-x="1036" 
d="M590 -291l-90 -237h-107l78 180q-37 8 -61 39q-25 31 -25 67q0 47 31 78t78 31q48 0 79 -31t31 -78q0 -14 -2 -18zM287 -2h-189l213 1518h189l-131 -928l467 444h237l-510 -479l424 -555h-229l-398 528z" />
    <glyph glyph-name="kgreenlandic" unicode="&#x138;" horiz-adv-x="1034" 
d="M279 0h-189l146 1034h188l-64 -444l467 444h238l-510 -479l424 -555h-229l-398 528z" />
    <glyph glyph-name="Lacute" unicode="&#x139;" horiz-adv-x="1062" 
d="M520 1567h-186l209 297h186zM963 0h-850l202 1440h197l-178 -1260h653z" />
    <glyph glyph-name="lacute" unicode="&#x13a;" horiz-adv-x="524" 
d="M518 1655h-186l209 297h186zM309 1518h189l-213 -1518h-189z" />
    <glyph glyph-name="uni013B" unicode="&#x13b;" horiz-adv-x="1062" 
d="M604 -291l-90 -237h-106l77 180q-37 8 -61 39q-25 31 -25 67q0 47 31 78t78 31q49 0 80 -31q30 -30 30 -78q0 -14 -2 -18zM969 -2h-850l203 1440h196l-178 -1260h653z" />
    <glyph glyph-name="uni013C" unicode="&#x13c;" horiz-adv-x="524" 
d="M258 -291l-90 -237h-107l78 180q-37 8 -61 39q-25 31 -25 67q0 47 31 78t78 31q49 0 80 -31q30 -30 30 -78q0 -14 -2 -18zM315 1516h189l-213 -1518h-189z" />
    <glyph glyph-name="Lcaron" unicode="&#x13d;" horiz-adv-x="1067" 
d="M901 1343l-133 -264h-121l121 232q-36 9 -59 41q-23 38 -23 67q0 51 35 86t86 35t86 -35t35 -84q0 -14 -6 -32q-7 -23 -21 -46zM965 -2h-850l202 1440h197l-178 -1260h653z" />
    <glyph glyph-name="lcaron" unicode="&#x13e;" horiz-adv-x="569" 
d="M877 1343l-134 -264h-120l120 232q-36 9 -59 41q-22 36 -22 67q0 52 34 86q35 35 86 35t86 -35t35 -84q0 -14 -6 -32q-7 -26 -20 -46zM311 1516h189l-213 -1518h-189z" />
    <glyph glyph-name="Ldot" unicode="&#x13f;" horiz-adv-x="1075" 
d="M963 0h-850l202 1440h197l-178 -1260h653zM989 735l-2 -6q0 -57 -41 -98q-39 -39 -102 -39q-58 0 -99 41q-38 38 -38 98q0 65 38 103q40 40 101 40q64 0 102 -38q41 -41 41 -101z" />
    <glyph glyph-name="ldot" unicode="&#x140;" horiz-adv-x="749" 
d="M309 1518h189l-213 -1518h-189zM809 735l-2 -6q0 -57 -41 -98q-39 -39 -102 -39q-58 0 -99 41q-39 39 -39 98q0 64 39 103q40 40 101 40q64 0 102 -38q41 -41 41 -101z" />
    <glyph glyph-name="Lslash" unicode="&#x141;" horiz-adv-x="1116" 
d="M1014 0h-850l72 508l-170 -92l24 192l172 94l105 738h196l-88 -623l313 170l-24 -192l-315 -172l-64 -443h653z" />
    <glyph glyph-name="lslash" unicode="&#x142;" horiz-adv-x="745" 
d="M414 0h-189l88 625l-252 -138l27 191l252 137l98 703h189l-84 -592l243 131l-26 -191l-244 -131z" />
    <glyph glyph-name="Nacute" unicode="&#x143;" horiz-adv-x="1454" 
d="M961 1567h-187l209 297h186zM297 0h-184l200 1440h187l547 -1125l159 1125h185l-201 -1440h-191l-544 1120z" />
    <glyph glyph-name="nacute" unicode="&#x144;" horiz-adv-x="1222" 
d="M795 1171h-187l209 297h187zM279 0l-185 -2l148 1034h178l-19 -123q65 71 148 109q81 37 176 37q194 0 293 -123t72 -322l-84 -612h-189l82 598q18 137 -43 213q-63 78 -190 78q-111 0 -197 -74q-85 -76 -100 -178z" />
    <glyph glyph-name="uni0145" unicode="&#x145;" horiz-adv-x="1454" 
d="M715 -291l-90 -237h-107l78 180q-37 8 -61 39q-25 31 -25 67q0 47 31 78t77 31q49 0 80 -31t31 -78q0 -14 -2 -18zM303 -2h-184l200 1440h187l547 -1125l159 1125h185l-201 -1440h-190l-545 1120z" />
    <glyph glyph-name="uni0146" unicode="&#x146;" horiz-adv-x="1222" 
d="M618 -291l-90 -237h-106l78 180q-38 9 -62 39t-24 67q0 48 30 78q31 31 78 31q49 0 80 -31t31 -78q0 -14 -2 -18zM285 -2l-185 -2l148 1034h178l-18 -123q66 72 147 109t176 37q194 0 293 -123t72 -322l-84 -612h-189l82 598q18 137 -43 213q-63 78 -190 78
q-111 0 -197 -74q-85 -76 -100 -178z" />
    <glyph glyph-name="Ncaron" unicode="&#x147;" horiz-adv-x="1454" 
d="M297 0h-184l200 1440h187l547 -1125l159 1125h185l-201 -1440h-191l-544 1120zM1241 1864l-278 -297h-168l-199 297h162l129 -191l180 191h174z" />
    <glyph glyph-name="ncaron" unicode="&#x148;" horiz-adv-x="1222" 
d="M1063 1468l-279 -297h-168l-198 297h162l129 -190l180 190h174zM279 0l-185 -2l148 1034h178l-19 -123q65 71 148 109q81 37 176 37q194 0 293 -123t72 -322l-84 -612h-189l82 598q18 137 -43 213q-63 78 -190 78q-111 0 -197 -74q-85 -76 -100 -178z" />
    <glyph glyph-name="napostrophe" unicode="&#x149;" horiz-adv-x="1222" 
d="M297 1362l-90 -238h-107l78 181q-38 8 -61 38q-25 31 -25 68q0 47 31 78t78 31q49 0 80 -31q30 -30 30 -78q0 -14 -2 -18zM285 -2l-185 -2l148 1034h178l-18 -123q66 72 147 109t176 37q194 0 293 -123t72 -322l-84 -612h-189l82 598q18 137 -43 213q-63 78 -190 78
q-111 0 -197 -74q-85 -76 -100 -178z" />
    <glyph glyph-name="Omacron" unicode="&#x14c;" horiz-adv-x="1699" 
d="M352 1231l-2 -4q112 112 260 174q146 61 310 61q312 0 510 -192q202 -193 202 -494q0 -161 -61 -307q-62 -152 -174 -258q-112 -112 -260 -174t-310 -62q-310 0 -510 197t-200 492q0 161 61 307q62 148 174 260zM322 666l4 -4q0 -218 145 -363q143 -143 369 -143
q244 0 417 176t173 428q0 218 -148 366t-371 148q-245 0 -417 -178t-172 -430zM1229 1614h-551l18 129h551z" />
    <glyph glyph-name="omacron" unicode="&#x14d;" horiz-adv-x="1267" 
d="M981 1231h-551l19 129h550zM1188 559h2q0 -246 -168 -414t-418 -168q-227 0 -375 142q-147 141 -147 356q0 244 168 412q170 170 418 170q224 0 372 -142t148 -356zM270 487l-2 -2q0 -142 99 -241t245 -99q163 0 277 117q112 112 112 283q0 145 -94 239q-95 99 -239 99
q-170 0 -283 -113q-115 -115 -115 -283z" />
    <glyph glyph-name="Obreve" unicode="&#x14e;" horiz-adv-x="1699" 
d="M352 1231l-2 -4q112 112 260 174q146 61 310 61q312 0 510 -192q202 -193 202 -494q0 -161 -61 -307q-62 -152 -174 -258q-112 -112 -260 -174t-310 -62q-310 0 -510 197t-200 492q0 161 61 307q62 148 174 260zM322 666l4 -4q0 -218 145 -363q143 -143 369 -143
q244 0 417 176t173 428q0 218 -148 366t-371 148q-245 0 -417 -178t-172 -430zM979 1540l4 -2q-131 0 -215 84q-82 82 -82 209h139q0 -76 41 -123t115 -47t115 47t41 123h139q0 -127 -82 -209t-215 -82z" />
    <glyph glyph-name="obreve" unicode="&#x14f;" horiz-adv-x="1267" 
d="M1188 559h2q0 -246 -168 -414t-418 -168q-227 0 -375 142q-147 141 -147 356q0 244 168 412q170 170 418 170q224 0 372 -142t148 -356zM270 487l-2 -2q0 -142 99 -241t245 -99q163 0 277 117q112 112 112 283q0 145 -94 239q-95 99 -239 99q-170 0 -283 -113
q-115 -115 -115 -283zM717 1153l4 -2q-131 0 -215 84q-82 82 -82 209h139q0 -76 41 -123t115 -47t115 47q40 46 40 123h140q0 -127 -82 -209t-215 -82z" />
    <glyph glyph-name="Ohungarumlaut" unicode="&#x150;" horiz-adv-x="1699" 
d="M885 1864h178l-191 -297h-176zM1143 1864h178l-191 -297h-176zM352 1231l-2 -4q112 112 260 174q146 61 310 61q312 0 510 -192q202 -193 202 -494q0 -161 -61 -307q-62 -152 -174 -258q-112 -112 -260 -174t-310 -62q-310 0 -510 197t-200 492q0 161 61 307
q62 148 174 260zM322 666l4 -4q0 -218 145 -363q143 -143 369 -143q244 0 417 176t173 428q0 218 -148 366t-371 148q-245 0 -417 -178t-172 -430z" />
    <glyph glyph-name="ohungarumlaut" unicode="&#x151;" horiz-adv-x="1267" 
d="M668 1468h178l-191 -297h-176zM926 1468h178l-191 -297h-176zM1188 559h2q0 -246 -168 -414t-418 -168q-227 0 -375 142q-147 141 -147 356q0 244 168 412q170 170 418 170q224 0 372 -142t148 -356zM270 487l-2 -2q0 -142 99 -241t245 -99q163 0 277 117
q112 112 112 283q0 145 -94 239q-95 99 -239 99q-170 0 -283 -113q-115 -115 -115 -283z" />
    <glyph glyph-name="OE" unicode="&#x152;" horiz-adv-x="2408" 
d="M2216 0l-893 -4l29 201q-106 -106 -248 -166q-137 -58 -295 -58q-295 0 -496 201q-200 200 -200 490q0 153 59 301q60 148 170 258q113 116 258 178q143 61 299 61q189 0 344 -82q156 -82 246 -229l41 289h878l-26 -180h-680l-64 -441h633l-24 -172h-631l-68 -467h693z
M317 666l5 -4q0 -218 145 -363q143 -143 369 -143q244 0 417 176q172 175 172 428q0 219 -147 366q-148 148 -371 148q-246 0 -418 -178t-172 -430z" />
    <glyph glyph-name="oe" unicode="&#x153;" horiz-adv-x="2152" 
d="M1075 238l-6 -7q-78 -122 -209 -192q-125 -70 -282 -70q-210 0 -355 148q-145 151 -145 354q0 238 166 410t397 172q158 0 277 -70q121 -68 188 -192q75 123 199 196q119 70 264 70q219 0 360 -144q142 -145 142 -356v-45q0 -4 -5 -49h-886q6 -149 98 -238
q96 -90 233 -90q108 0 191 47q79 44 133 142h193q-71 -164 -209 -256q-140 -93 -314 -93q-145 0 -258 70q-112 69 -172 193zM1559 891l-5 2q-125 0 -219 -76q-97 -73 -139 -203h684q-21 128 -108 203q-86 74 -213 74zM258 483l-2 -2q0 -143 98 -241q99 -99 246 -99
q163 0 277 117q112 112 112 283q0 145 -94 239q-95 99 -240 99q-169 0 -282 -113q-115 -115 -115 -283z" />
    <glyph glyph-name="Racute" unicode="&#x154;" 
d="M311 0l-200 -4l200 1440h512q207 0 344 -113q138 -114 138 -289q0 -198 -142 -325t-370 -142l436 -567h-238l-432 565h-170zM791 1264l-306 2l-73 -541h329q156 0 256 80q99 79 99 215q0 108 -86 176t-219 68zM877 1565h-187l209 297h186z" />
    <glyph glyph-name="racute" unicode="&#x155;" horiz-adv-x="772" 
d="M635 1171h-186l208 297h187zM238 1034l184 2l-23 -157q64 85 150 127q85 43 182 43q27 0 41 -2l35 -7l-27 -178l-39 6q-14 2 -43 2q-135 0 -227 -86t-113 -227l-79 -557h-189z" />
    <glyph glyph-name="uni0156" unicode="&#x156;" 
d="M715 -291l-90 -237h-107l78 180q-37 8 -61 39q-25 31 -25 67q0 47 31 78t77 31q49 0 80 -31t31 -78q0 -14 -2 -18zM317 -2l-200 -4l200 1440h512q208 0 345 -113t137 -289q0 -198 -142 -325t-370 -142l436 -567h-238l-432 565h-170zM797 1262l-305 2l-74 -541h330
q156 0 256 80q98 79 98 215q0 108 -86 176t-219 68z" />
    <glyph glyph-name="uni0157" unicode="&#x157;" horiz-adv-x="772" 
d="M252 -291l-90 -237h-107l78 180q-37 8 -61 39q-25 31 -25 67q0 47 31 78t78 31q49 0 80 -31q30 -30 30 -78q0 -14 -2 -18zM244 1032l184 2l-22 -157q65 86 149 127q85 43 182 43q20 0 41 -3l35 -6l-27 -178l-38 6q-14 2 -43 2q-136 0 -228 -86q-91 -85 -112 -227
l-80 -557h-189z" />
    <glyph glyph-name="Rcaron" unicode="&#x158;" 
d="M311 0l-200 -4l200 1440h512q207 0 344 -113q138 -114 138 -289q0 -198 -142 -325t-370 -142l436 -567h-238l-432 565h-170zM791 1264l-306 2l-73 -541h329q156 0 256 80q99 79 99 215q0 108 -86 176t-219 68zM1157 1862l-278 -297h-168l-199 297h162l129 -191l180 191
h174z" />
    <glyph glyph-name="rcaron" unicode="&#x159;" horiz-adv-x="772" 
d="M905 1468l-278 -297h-168l-199 297h162l129 -190l180 190h174zM238 1034l184 2l-23 -157q64 85 150 127q85 43 182 43q27 0 41 -2l35 -7l-27 -178l-39 6q-14 2 -43 2q-135 0 -227 -86t-113 -227l-79 -557h-189z" />
    <glyph glyph-name="Sacute" unicode="&#x15a;" horiz-adv-x="1234" 
d="M684 1464l-2 -8q229 0 362 -121t130 -331h-197q3 135 -74 206q-78 72 -221 72q-127 0 -203 -61t-76 -162q0 -71 46 -117q44 -44 184 -94l127 -45q213 -74 289 -162q79 -88 79 -221q0 -205 -139 -326t-366 -121q-265 0 -408 131q-147 132 -135 363h201q-9 -154 79 -236
q87 -81 258 -81q139 0 222 71q84 72 84 191q0 51 -21 86q-19 37 -67 65q-30 21 -52 29l-118 47l-140 51q-174 64 -252 154q-75 87 -75 215q0 184 135 295q134 110 350 110zM803 1559h-187l209 296h187z" />
    <glyph glyph-name="sacute" unicode="&#x15b;" horiz-adv-x="1003" 
d="M657 1171h-186l209 297h186zM535 1059l-9 -8q180 0 289 -86t109 -238h-191q0 83 -53 127q-52 43 -158 43q-90 0 -145 -37t-55 -102q0 -53 36 -82q42 -33 148 -62l82 -22q158 -44 227 -113q72 -72 72 -174q0 -157 -111 -246q-116 -90 -293 -90q-206 0 -325 94
q-120 95 -117 265h197q-3 -96 61 -148q65 -53 178 -53q103 0 160 45q59 47 59 123q0 54 -34 84q-31 31 -136 59l-116 33q-142 41 -205 107q-64 64 -64 172q0 138 111 223q112 86 283 86z" />
    <glyph glyph-name="Scircumflex" unicode="&#x15c;" horiz-adv-x="1234" 
d="M684 1464l-2 -8q229 0 362 -121t130 -331h-197q3 135 -74 206q-78 72 -221 72q-127 0 -203 -61t-76 -162q0 -71 46 -117q44 -44 184 -94l127 -45q213 -74 289 -162q79 -88 79 -221q0 -205 -139 -326t-366 -121q-265 0 -408 131q-147 132 -135 363h201q-9 -154 79 -236
q87 -81 258 -81q139 0 222 71q84 72 84 191q0 51 -21 86q-19 37 -67 65q-30 21 -52 29l-118 47l-140 51q-174 64 -252 154q-75 87 -75 215q0 184 135 295q134 110 350 110zM391 1559l279 296h168l198 -296h-162l-129 190l-180 -190h-174z" />
    <glyph glyph-name="scircumflex" unicode="&#x15d;" horiz-adv-x="1003" 
d="M240 1171l278 297h168l199 -297h-162l-129 191l-180 -191h-174zM535 1059l-9 -8q180 0 289 -86t109 -238h-191q0 83 -53 127q-52 43 -158 43q-90 0 -145 -37t-55 -102q0 -53 36 -82q42 -33 148 -62l82 -22q158 -44 227 -113q72 -72 72 -174q0 -157 -111 -246
q-116 -90 -293 -90q-206 0 -325 94q-120 95 -117 265h197q-3 -96 61 -148q65 -53 178 -53q103 0 160 45q59 47 59 123q0 54 -34 84q-31 31 -136 59l-116 33q-142 41 -205 107q-64 64 -64 172q0 138 111 223q112 86 283 86z" />
    <glyph glyph-name="Scedilla" unicode="&#x15e;" horiz-adv-x="1234" 
d="M684 1464l-12 -16q229 0 362 -121q132 -120 129 -332h-196q3 136 -74 207q-78 72 -221 72q-126 0 -203 -62q-76 -61 -76 -161q0 -72 45 -117q43 -43 185 -94l127 -45q212 -73 288 -162q80 -89 80 -221q0 -200 -129 -320t-346 -129l-68 -86q91 -3 146 -55t55 -135
q0 -96 -67 -160q-64 -64 -168 -64q-102 0 -164 56t-62 143h144q0 -30 24 -51q21 -21 62 -21q36 0 65 29t29 66t-25 59q-30 23 -63 23q-18 0 -39 -7q-20 -6 -39 -26l-104 67l141 176q-213 27 -326 158q-113 128 -104 332h201q-9 -154 79 -236q87 -81 258 -81q139 0 222 71
q84 72 84 191q0 51 -21 86q-19 37 -67 65q-30 21 -52 29l-118 47l-140 51q-174 64 -252 154q-75 87 -75 215q0 184 135 295q134 110 350 110z" />
    <glyph glyph-name="scedilla" unicode="&#x15f;" horiz-adv-x="1003" 
d="M535 1059l-7 -23q180 0 289 -86t109 -237h-191q0 83 -53 127q-52 43 -158 43q-90 0 -145 -37t-55 -103q0 -49 34 -79q38 -33 148 -62l82 -22q158 -44 227 -113q72 -72 72 -174q0 -152 -101 -240q-103 -89 -270 -98l-67 -86q90 -3 145 -55t55 -136q0 -95 -67 -159
q-64 -64 -168 -64q-102 0 -164 56t-62 143h144q0 -30 24 -51q21 -21 62 -21q36 0 65 29t29 65q0 38 -25 60q-28 22 -63 22q-21 0 -39 -6q-19 -6 -39 -26l-104 67l141 178q-164 21 -252 115q-89 92 -86 236h197q-3 -96 61 -148q65 -53 178 -53q103 0 160 45q59 47 59 123
q0 53 -36 86q-37 34 -138 61l-116 33q-144 42 -205 109q-64 64 -64 172q0 138 111 223q112 86 283 86z" />
    <glyph glyph-name="Scaron" unicode="&#x160;" horiz-adv-x="1234" 
d="M684 1464l-2 -8q229 0 362 -121t130 -331h-197q3 135 -74 206q-78 72 -221 72q-127 0 -203 -61t-76 -162q0 -71 46 -117q44 -44 184 -94l127 -45q213 -74 289 -162q79 -88 79 -221q0 -205 -139 -326t-366 -121q-265 0 -408 131q-147 132 -135 363h201q-9 -154 79 -236
q87 -81 258 -81q139 0 222 71q84 72 84 191q0 51 -21 86q-19 37 -67 65q-30 21 -52 29l-118 47l-140 51q-174 64 -252 154q-75 87 -75 215q0 184 135 295q134 110 350 110zM1081 1855l-278 -296h-168l-199 296h162l129 -190l180 190h174z" />
    <glyph glyph-name="scaron" unicode="&#x161;" horiz-adv-x="1003" 
d="M928 1468l-279 -297h-168l-198 297h161l129 -190l181 190h174zM535 1059l-9 -8q180 0 289 -86t109 -238h-191q0 83 -53 127q-52 43 -158 43q-90 0 -145 -37t-55 -102q0 -53 36 -82q42 -33 148 -62l82 -22q158 -44 227 -113q72 -72 72 -174q0 -157 -111 -246
q-116 -90 -293 -90q-206 0 -325 94q-120 95 -117 265h197q-3 -96 61 -148q65 -53 178 -53q103 0 160 45q59 47 59 123q0 54 -34 84q-31 31 -136 59l-116 33q-142 41 -205 107q-64 64 -64 172q0 138 111 223q112 86 283 86z" />
    <glyph glyph-name="uni0162" unicode="&#x162;" horiz-adv-x="1101" 
d="M401 0l-32 -8l176 1259h-422l24 181h1043l-27 -181h-422l-178 -1259h-24l-86 -111q90 -3 145 -55t55 -135q0 -96 -67 -160q-63 -63 -168 -63q-103 0 -164 55t-61 143h143q0 -30 24 -51q21 -21 62 -21q36 0 65 29t29 66q0 38 -24 59q-30 23 -64 23q-18 0 -39 -7
q-19 -6 -39 -26l-104 67z" />
    <glyph glyph-name="uni0163" unicode="&#x163;" horiz-adv-x="778" 
d="M786 1034l-34 -174h-308l-73 -512q-18 -116 18 -164q37 -49 135 -49q29 0 74 10q33 9 76 31l-25 -170q-38 -23 -74 -31q-31 -8 -86 -8h-22l-68 -86q91 -3 146 -55t55 -135q0 -95 -68 -160q-63 -63 -167 -63q-103 0 -164 55q-62 56 -62 143h144q0 -30 24 -51
q21 -21 62 -21q36 0 65 29t29 66t-25 59q-30 23 -63 23q-18 0 -39 -7q-20 -6 -39 -26l-104 67l153 193q-100 34 -137 121q-37 88 -16 233l75 514h-180l25 168h180l49 334l193 33l-54 -367h305z" />
    <glyph glyph-name="Tcaron" unicode="&#x164;" horiz-adv-x="1101" 
d="M571 0h-194l176 1260h-422l25 180h1042l-27 -180h-421zM1063 1864l-279 -297h-168l-198 297h162l129 -191l180 191h174z" />
    <glyph glyph-name="tcaron" unicode="&#x165;" horiz-adv-x="776" 
d="M928 1444l-133 -264h-121l121 231q-38 9 -60 41q-22 36 -22 68q0 51 35 86q34 34 86 34t86 -34t34 -84q0 -15 -6 -33q-7 -24 -20 -45zM786 1032l-22 -162h-307l-74 -512q-15 -121 20 -165q38 -50 134 -50q23 0 73 11q37 10 76 30l-24 -170q-35 -21 -74 -30q-34 -9 -86 -9
q-182 0 -260 93q-76 91 -49 282l75 514h-180l25 168h180l49 334l193 33l-54 -367h305z" />
    <glyph glyph-name="Tbar" unicode="&#x166;" horiz-adv-x="1157" 
d="M598 0h-195l95 668h-310l23 163h309l60 429h-422l24 180h1043l-27 -180h-422l-61 -429h309l-23 -163h-309z" />
    <glyph glyph-name="tbar" unicode="&#x167;" horiz-adv-x="802" 
d="M438 639l307 4l-20 -154h-311l-19 -131q-18 -114 19 -163q38 -50 135 -50q25 0 74 11q35 9 75 30l-24 -170q-35 -21 -74 -30q-34 -9 -86 -9q-180 0 -258 93q-76 91 -49 282l20 133h-176l23 154h176l33 227h-181l25 168h180l49 334l193 33l-53 -367h305l-23 -168h-307z
" />
    <glyph glyph-name="Utilde" unicode="&#x168;" horiz-adv-x="1404" 
d="M1024 459l135 981h197l-142 -1002q-30 -211 -178 -338q-143 -125 -366 -125q-239 0 -387 154t-113 385l129 928h197l-129 -936q-21 -152 67 -246q90 -96 242 -96q138 0 233 80q97 82 115 215zM911 1751l-4 -2l43 -37q8 -8 25 -8q29 0 41 25q12 21 22 88h127
q-9 -126 -55 -187t-135 -61q-46 0 -74 14q-32 14 -80 62q-22 29 -43 41q-17 10 -35 10q-36 0 -55 -29q-18 -32 -26 -92h-127q9 126 61 190t152 64q31 0 77 -17q37 -15 86 -61z" />
    <glyph glyph-name="utilde" unicode="&#x169;" horiz-adv-x="1202" 
d="M926 1034l180 2l-145 -1034h-179l19 125q-61 -70 -142 -111q-74 -39 -170 -39q-184 0 -284 127q-99 126 -72 320l86 612h189l-84 -596q-18 -132 43 -211t178 -79q115 0 194 73q81 75 99 197zM758 1366l-4 -2l43 -37q8 -8 24 -8q29 0 41 24q13 23 23 89h127
q-9 -125 -56 -187q-46 -61 -135 -61q-45 0 -73 14q-32 14 -80 62q-21 27 -43 40q-18 11 -35 11q-36 0 -55 -29q-19 -34 -27 -92h-127q9 126 61 190t152 64q32 0 78 -17q37 -15 86 -61z" />
    <glyph glyph-name="Umacron" unicode="&#x16a;" horiz-adv-x="1404" 
d="M1024 459l135 981h197l-142 -1002q-30 -211 -178 -338q-143 -125 -366 -125q-239 0 -387 154t-113 385l129 928h197l-129 -936q-21 -152 67 -246q90 -96 242 -96q138 0 233 80q97 82 115 215zM1118 1622h-551l19 129h551z" />
    <glyph glyph-name="umacron" unicode="&#x16b;" horiz-adv-x="1202" 
d="M926 1034l180 2l-145 -1034h-179l19 125q-61 -70 -142 -111q-74 -39 -170 -39q-184 0 -284 127q-99 126 -72 320l86 612h189l-84 -596q-18 -132 43 -211t178 -79q115 0 194 73q81 75 99 197zM961 1233h-551l18 129h551z" />
    <glyph glyph-name="Ubreve" unicode="&#x16c;" horiz-adv-x="1404" 
d="M1024 459l135 981h197l-142 -1002q-30 -211 -178 -338q-143 -125 -366 -125q-239 0 -387 154t-113 385l129 928h197l-129 -936q-21 -152 67 -246q90 -96 242 -96q138 0 233 80q97 82 115 215zM870 1548l4 -2q-131 0 -215 84q-81 81 -81 209h139q0 -76 41 -123t114 -47
q74 0 115 47t41 123h139q0 -127 -82 -209t-215 -82z" />
    <glyph glyph-name="ubreve" unicode="&#x16d;" horiz-adv-x="1202" 
d="M926 1034l180 2l-145 -1034h-179l19 125q-61 -70 -142 -111q-74 -39 -170 -39q-184 0 -284 127q-99 126 -72 320l86 612h189l-84 -596q-18 -132 43 -211t178 -79q115 0 194 73q81 75 99 197zM696 1157l4 -2q-131 0 -215 84q-82 82 -82 209h140q0 -76 41 -123t114 -47
q74 0 115 47t41 123h139q0 -127 -82 -209t-215 -82z" />
    <glyph glyph-name="Uring" unicode="&#x16e;" horiz-adv-x="1404" 
d="M1071 1749l-2 -4q0 -83 -61 -141q-58 -58 -148 -58q-87 0 -147 60t-60 141q0 82 62 141q66 60 147 60q90 0 148 -58q61 -58 61 -141zM770 1745l-2 -4q0 -41 27 -68q26 -26 67 -26q40 0 68 28t28 68q0 41 -26 67q-29 29 -68 29q-40 0 -67 -27t-27 -67zM1020 451l135 981
h197l-142 -1002q-30 -211 -178 -338q-143 -125 -366 -125q-239 0 -387 154t-113 385l129 928h197l-130 -936q-21 -151 68 -246q90 -96 242 -96q138 0 233 80q97 82 115 215z" />
    <glyph glyph-name="uring" unicode="&#x16f;" horiz-adv-x="1202" 
d="M911 1356l-2 -4q0 -84 -61 -142q-57 -57 -148 -57q-88 0 -147 59t-59 142t61 141q65 59 147 59q91 0 148 -57q61 -58 61 -141zM610 1352l-2 -4q0 -41 27 -68t67 -27q39 0 68 29t29 68q0 40 -27 67q-29 29 -67 29q-41 0 -68 -27t-27 -67zM922 1026l180 2l-146 -1034h-178
l19 125q-61 -70 -142 -111q-74 -39 -170 -39q-184 0 -284 127q-99 126 -72 320l86 612h188l-84 -596q-18 -132 43 -211q62 -80 179 -80q114 0 194 74q81 75 99 197z" />
    <glyph glyph-name="Uhungarumlaut" unicode="&#x170;" horiz-adv-x="1404" 
d="M780 1864h178l-190 -297h-176zM1038 1864h179l-191 -297h-176zM1024 459l135 981h197l-142 -1002q-30 -211 -178 -338q-143 -125 -366 -125q-239 0 -387 154t-113 385l129 928h197l-129 -936q-21 -152 67 -246q90 -96 242 -96q138 0 233 80q97 82 115 215z" />
    <glyph glyph-name="uhungarumlaut" unicode="&#x171;" horiz-adv-x="1202" 
d="M926 1034l180 2l-145 -1034h-179l19 125q-61 -70 -142 -111q-74 -39 -170 -39q-184 0 -284 127q-99 126 -72 320l86 612h189l-84 -596q-18 -132 43 -211t178 -79q115 0 194 73q81 75 99 197zM647 1470h178l-190 -296h-176zM905 1470h178l-190 -296h-176z" />
    <glyph glyph-name="Uogonek" unicode="&#x172;" horiz-adv-x="1404" 
d="M676 162v6q138 0 233 80q97 82 115 215l137 981h197l-141 -1002q-18 -129 -82 -227q-62 -98 -187 -190q-113 -79 -172 -168q-57 -86 -57 -172q0 -37 24 -58q20 -20 68 -20q23 0 47 6l47 16l-18 -131q-25 -15 -66 -26q-27 -9 -59 -9q-82 0 -148 54q-61 52 -61 129
q0 74 41 151q45 78 145 178q-16 -2 -41 -2h-28q-239 0 -387 154t-113 385l129 928h197l-129 -936q-21 -152 67 -246q90 -96 242 -96z" />
    <glyph glyph-name="uogonek" unicode="&#x173;" horiz-adv-x="1202" 
d="M926 1034l180 -4l-145 -1034h-15q-123 -117 -178 -191q-51 -68 -51 -122q0 -39 22 -58q21 -18 68 -18q23 0 47 6l49 16l-18 -127q-18 -13 -51 -24q-24 -8 -64 -8q-95 0 -156 49t-61 129q0 85 45 153q45 74 184 201l19 125q-61 -70 -142 -111q-74 -39 -170 -39
q-184 0 -284 127q-99 126 -72 320l86 612h189l-84 -596q-18 -132 43 -211t178 -79q115 0 194 73q81 75 99 197z" />
    <glyph glyph-name="Wcircumflex" unicode="&#x174;" horiz-adv-x="2021" 
d="M831 1567l279 297h168l199 -297h-162l-129 190l-180 -190h-175zM602 0h-209l-219 1440h203l160 -1178l507 1178h183l178 -1168l483 1168h211l-624 -1440h-209l-176 1096z" />
    <glyph glyph-name="wcircumflex" unicode="&#x175;" horiz-adv-x="1732" 
d="M633 1171l278 297h168l199 -297h-162l-129 191l-180 -191h-174zM520 0h-192l-217 1034h182l164 -811l391 811h182l162 -807l387 807h190l-507 -1034h-189l-166 791z" />
    <glyph glyph-name="Ycircumflex" unicode="&#x176;" horiz-adv-x="1290" 
d="M670 0h-197l74 524l-371 916h209l281 -713l483 713h219l-623 -903zM471 1567l279 297h168l198 -297h-162l-129 190l-180 -190h-174z" />
    <glyph glyph-name="ycircumflex" unicode="&#x177;" horiz-adv-x="1079" 
d="M913 1034h199l-764 -1468h-194l219 424l-262 1044h194l193 -813zM305 1171l279 297h168l198 -297h-162l-129 191l-180 -191h-174z" />
    <glyph glyph-name="Ydieresis" unicode="&#x178;" horiz-adv-x="1290" 
d="M670 0h-197l74 524l-371 916h209l281 -713l483 713h219l-623 -903zM764 1700h-2q0 -47 -31 -78t-76 -31q-44 0 -75 31t-31 78t31 78q30 30 77 30q46 0 76 -30q31 -31 31 -78zM1061 1700l-4 -4q0 -45 -31 -76t-76 -31t-76 31q-30 30 -30 78t30 78t78 30t78 -30
q31 -31 31 -76z" />
    <glyph glyph-name="Zacute" unicode="&#x179;" horiz-adv-x="1173" 
d="M1020 0h-1016l23 160l905 1100h-739l24 180h995l-22 -160l-907 -1100h761zM821 1567h-186l209 297h186z" />
    <glyph glyph-name="zacute" unicode="&#x17a;" horiz-adv-x="1015" 
d="M700 1171h-186l209 297h186zM881 0h-889l18 127l727 739h-596l25 168h835l-18 -135l-713 -731h633z" />
    <glyph glyph-name="Zdotaccent" unicode="&#x17b;" horiz-adv-x="1173" 
d="M862 1708q0 -50 -37 -84q-41 -35 -86 -35q-49 0 -84 35q-34 34 -34 84q0 46 34 86q34 37 84 37q49 0 86 -37t37 -86zM1020 0h-1016l23 160l905 1100h-739l24 180h995l-22 -160l-907 -1100h761z" />
    <glyph glyph-name="zdotaccent" unicode="&#x17c;" horiz-adv-x="1015" 
d="M881 0h-889l18 127l727 739h-596l25 168h835l-18 -135l-713 -731h633zM737 1317q0 -50 -37 -84q-41 -35 -86 -35q-49 0 -84 35q-34 34 -34 84q0 46 34 86q34 37 84 37q49 0 86 -37t37 -86z" />
    <glyph glyph-name="Zcaron" unicode="&#x17d;" horiz-adv-x="1173" 
d="M1020 0h-1016l23 160l905 1100h-739l24 180h995l-22 -160l-907 -1100h761zM1102 1864l-279 -297h-168l-198 297h161l130 -191l180 191h174z" />
    <glyph glyph-name="zcaron" unicode="&#x17e;" horiz-adv-x="1015" 
d="M969 1468l-279 -297h-168l-198 297h161l129 -190l181 190h174zM881 0h-889l18 127l727 739h-596l25 168h835l-18 -135l-713 -731h633z" />
    <glyph glyph-name="longs" unicode="&#x17f;" horiz-adv-x="557" 
d="M444 1165l-168 -1169h-188l164 1178q27 188 121 276q96 90 262 90q45 0 92 -6q43 -6 88 -18l-24 -162l-68 16q-35 6 -64 6q-96 0 -147 -51q-53 -53 -68 -160z" />
    <glyph glyph-name="florin" unicode="&#x192;" horiz-adv-x="1118" 
d="M711 752l-232 -852q-56 -200 -145 -283q-89 -80 -244 -80q-46 0 -86 6q-35 5 -78 19l23 166q2 -1 57 -15q30 -6 64 -6q90 0 143 47t82 164l229 836h-231l24 170h254l70 256q53 197 145 280q96 84 244 84q46 0 86 -6q39 -6 80 -18l-22 -166q-25 8 -58 12q-46 4 -63 4
q-93 0 -144 -45t-86 -162l-65 -241h231l-24 -170h-254z" />
    <glyph glyph-name="uni0218" unicode="&#x218;" horiz-adv-x="1234" 
d="M655 -291l-90 -237h-106l78 180q-38 9 -62 39t-24 67q0 48 30 78q31 31 78 31q49 0 80 -31t31 -78q0 -14 -2 -18zM690 1462l-2 -8q230 0 363 -121q132 -120 129 -332h-197q3 136 -74 207q-78 72 -221 72q-127 0 -203 -61q-75 -60 -75 -162q0 -72 45 -117q44 -44 184 -94
l127 -45q213 -74 289 -162q80 -89 80 -221q0 -204 -140 -326q-139 -121 -366 -121q-265 0 -408 131q-147 132 -135 363h201q-9 -153 80 -236q88 -82 258 -82q137 0 221 72t84 191q0 52 -21 86q-19 37 -67 65q-31 22 -51 29l-119 47l-140 51q-173 63 -251 154q-76 88 -76 215
q0 184 135 295q134 110 350 110z" />
    <glyph glyph-name="uni0219" unicode="&#x219;" horiz-adv-x="1003" 
d="M530 -291l-90 -237h-106l78 180q-38 9 -62 39t-24 67q0 48 30 78q31 31 78 31q49 0 80 -31t31 -78q0 -14 -2 -18zM541 1057l-9 -8q180 0 289 -86t109 -238h-191q0 83 -53 127q-52 43 -158 43q-90 0 -145 -37t-55 -102q0 -52 37 -82q42 -34 147 -62l82 -22
q158 -44 227 -113q72 -72 72 -174q0 -157 -111 -246q-116 -90 -293 -90q-206 0 -325 94q-120 95 -117 265h197q-3 -96 61 -148q65 -53 178 -53q103 0 160 45q59 47 59 123q0 54 -34 84q-31 31 -136 59l-116 33q-143 41 -205 106q-64 64 -64 173q0 137 111 223q112 86 283 86
z" />
    <glyph glyph-name="uni021A" unicode="&#x21a;" horiz-adv-x="1101" 
d="M541 -291l-90 -237h-107l78 180q-38 9 -62 39t-24 67q0 47 31 78t77 31q49 0 80 -31t31 -78q0 -14 -2 -18zM578 -2h-195l176 1259h-422l25 181h1042l-26 -181h-422z" />
    <glyph glyph-name="uni021B" unicode="&#x21b;" horiz-adv-x="776" 
d="M367 -291l-91 -237h-106l78 180q-38 9 -62 39t-24 67q0 47 31 78t77 31q49 0 80 -31t31 -78q0 -14 -2 -18zM791 1032l-23 -162h-307l-74 -512q-15 -120 21 -165q38 -50 133 -50q23 0 73 11q37 10 76 30l-24 -170q-35 -21 -74 -30q-34 -9 -86 -9q-182 0 -260 93
q-76 91 -49 282l75 514h-180l25 168h180l49 334l193 33l-54 -367h306z" />
    <glyph glyph-name="uni0237" unicode="&#x237;" horiz-adv-x="538" 
d="M98 -78l156 1108h190l-159 -1126q-26 -188 -119 -281q-96 -90 -258 -90q-16 0 -66 4l-51 6l23 164q4 -2 32 -2h37q95 0 148 53q52 52 67 164z" />
    <glyph glyph-name="circumflex" unicode="&#x2c6;" horiz-adv-x="757" 
d="M35 1171l278 297h168l199 -297h-162l-129 191l-180 -191h-174z" />
    <glyph glyph-name="caron" unicode="&#x2c7;" horiz-adv-x="786" 
d="M758 1468l-279 -297h-168l-198 297h161l129 -190l181 190h174z" />
    <glyph glyph-name="uni02C9" unicode="&#x2c9;" horiz-adv-x="729" 
d="M631 1231h-551l18 129h551z" />
    <glyph glyph-name="breve" unicode="&#x2d8;" horiz-adv-x="727" 
d="M385 1155l4 -2q-131 0 -215 84q-82 82 -82 209h139q0 -76 41 -123t115 -47t115 47t41 123h139q0 -127 -82 -209t-215 -82z" />
    <glyph glyph-name="dotaccent" unicode="&#x2d9;" horiz-adv-x="419" 
d="M330 1317q0 -50 -37 -84q-41 -35 -86 -35q-49 0 -84 35t-35 84q0 45 35 86q34 37 84 37q49 0 86 -37t37 -86z" />
    <glyph glyph-name="ring" unicode="&#x2da;" horiz-adv-x="569" 
d="M492 1356l-3 -4q0 -84 -61 -142q-57 -57 -147 -57q-89 0 -148 59t-59 142t61 141q65 59 148 59q90 0 147 -57q62 -59 62 -141zM190 1352l-2 -4q0 -41 27 -68t68 -27q38 0 67 29t29 68q0 40 -27 67q-29 29 -67 29q-41 0 -68 -27t-27 -67z" />
    <glyph glyph-name="ogonek" unicode="&#x2db;" horiz-adv-x="524" 
d="M57 -352l-2 -6q0 81 43 151q39 66 189 203h164q-126 -120 -179 -191q-51 -68 -51 -122q0 -38 23 -58q21 -18 67 -18q23 0 47 6l50 16l-19 -127q-18 -13 -51 -24q-24 -8 -64 -8q-94 0 -155 49q-62 50 -62 129z" />
    <glyph glyph-name="tilde" unicode="&#x2dc;" horiz-adv-x="774" 
d="M446 1364l-4 -2l43 -37q8 -8 25 -8q29 0 41 24q11 21 22 89h127q-9 -126 -55 -187t-135 -61q-46 0 -74 14q-34 15 -80 61q-22 29 -43 41q-18 11 -34 11q-37 0 -56 -29q-18 -32 -26 -92h-127q9 126 61 190t152 64q31 0 77 -17q37 -15 86 -61z" />
    <glyph glyph-name="hungarumlaut" unicode="&#x2dd;" horiz-adv-x="757" 
d="M258 1468h178l-190 -297h-176zM516 1468h178l-190 -297h-176z" />
    <glyph glyph-name="uni0394" unicode="&#x394;" horiz-adv-x="1333" 
d="M1219 145l-21 -145h-1206l20 145l678 1295h211zM770 1214l-530 -1038h768z" />
    <glyph glyph-name="uni03A9" unicode="&#x3a9;" horiz-adv-x="1667" 
d="M639 0l-588 -2l25 178h375q-158 120 -230 256q-76 137 -76 305q0 301 222 514q227 213 538 213q299 0 492 -184q194 -185 194 -457q0 -204 -106 -364q-106 -161 -314 -279h312l-25 -178h-584l31 221q238 91 363 240q123 147 123 344q0 200 -142 336q-141 135 -352 135
q-235 0 -393 -162q-160 -165 -160 -389q0 -144 84 -278q87 -133 244 -224z" />
    <glyph glyph-name="uni03BC" unicode="&#x3bc;" horiz-adv-x="1236" 
d="M948 1034l178 2l-145 -1034h-178l18 125q-61 -71 -141 -111q-74 -39 -170 -39q-53 0 -119 17q-55 14 -102 49l-66 -475h-188l205 1468h188l-88 -626q-15 -114 49 -187t178 -73q116 0 195 73q80 74 98 197z" />
    <glyph glyph-name="pi" unicode="&#x3c0;" horiz-adv-x="1333" 
d="M106 1034h1268l-24 -172h-211l-121 -862h-187l119 862h-469l-121 -862h-188l121 862h-211z" />
    <glyph glyph-name="Wgrave" unicode="&#x1e80;" horiz-adv-x="2021" 
d="M1040 1567l-125 297h179l120 -297h-174zM602 0h-209l-219 1440h203l160 -1178l507 1178h183l178 -1168l483 1168h211l-624 -1440h-209l-176 1096z" />
    <glyph glyph-name="wgrave" unicode="&#x1e81;" horiz-adv-x="1732" 
d="M520 0h-192l-217 1034h182l164 -811l391 811h182l162 -807l387 807h190l-507 -1034h-189l-166 791zM844 1171l-125 297h178l121 -297h-174z" />
    <glyph glyph-name="Wacute" unicode="&#x1e82;" horiz-adv-x="2021" 
d="M1243 1567h-186l209 297h186zM602 0h-209l-219 1440h203l160 -1178l507 1178h183l178 -1168l483 1168h211l-624 -1440h-209l-176 1096z" />
    <glyph glyph-name="wacute" unicode="&#x1e83;" horiz-adv-x="1732" 
d="M1051 1171h-187l209 297h187zM520 0h-192l-217 1034h182l164 -811l391 811h182l162 -807l387 807h190l-507 -1034h-189l-166 791z" />
    <glyph glyph-name="Wdieresis" unicode="&#x1e84;" horiz-adv-x="2021" 
d="M602 0h-209l-219 1440h203l160 -1178l507 1178h183l178 -1168l483 1168h211l-624 -1440h-209l-176 1096zM1124 1700h-2q0 -48 -30 -78q-31 -31 -76 -31t-76 31t-31 78t31 78q30 30 78 30q46 0 76 -30t30 -78zM1421 1700l-4 -4q0 -45 -31 -76t-75 -31q-45 0 -76 31t-31 78
t31 78q30 30 78 30t78 -30t30 -76z" />
    <glyph glyph-name="wdieresis" unicode="&#x1e85;" horiz-adv-x="1732" 
d="M932 1309h-2q0 -47 -31 -78t-76 -31q-44 0 -75 31t-31 78q0 46 31 77t77 31q45 0 76 -31t31 -77zM1229 1309l-4 -4q0 -45 -31 -76t-76 -31t-76 31q-30 30 -30 78q0 47 30 77q31 31 78 31t78 -31t31 -75zM514 -4h-192l-218 1034h183l164 -811l391 811h182l162 -807
l387 807h190l-508 -1034h-188l-166 790z" />
    <glyph glyph-name="uni1E9E" unicode="&#x1e9e;" horiz-adv-x="1464" 
d="M1360 434l-6 6q0 -203 -137 -331q-138 -129 -357 -129q-96 0 -190 24q-89 23 -160 66l27 180q67 -48 151 -74q79 -26 164 -26q146 0 227 75q82 76 82 215q0 109 -76 176q-77 68 -196 68q-31 0 -58 -6q-24 -5 -55 -19l-112 123l430 484h-207q-188 0 -320 -123t-159 -326
l-115 -817h-197l115 821q41 294 225 455q188 164 467 164h451l-21 -156l-395 -453h6q187 0 299 -112q117 -114 117 -285z" />
    <glyph glyph-name="Ygrave" unicode="&#x1ef2;" horiz-adv-x="1290" 
d="M670 0h-197l74 524l-371 916h209l281 -713l483 713h219l-623 -903zM682 1567l-125 297h178l121 -297h-174z" />
    <glyph glyph-name="ygrave" unicode="&#x1ef3;" horiz-adv-x="1079" 
d="M913 1034h199l-764 -1468h-194l219 424l-262 1044h194l193 -813zM514 1171l-125 297h178l121 -297h-174z" />
    <glyph glyph-name="endash" unicode="&#x2013;" horiz-adv-x="1204" 
d="M152 625h907v-162h-907v162z" />
    <glyph glyph-name="emdash" unicode="&#x2014;" horiz-adv-x="2174" 
d="M152 625h1878v-162h-1878v162z" />
    <glyph glyph-name="quoteleft" unicode="&#x2018;" horiz-adv-x="491" 
d="M377 1440h141l-166 -307q43 -15 66 -52q24 -37 24 -80q0 -61 -39 -100t-100 -39t-102 41t-41 98q0 17 6 35l18 47z" />
    <glyph glyph-name="quoteright" unicode="&#x2019;" horiz-adv-x="495" 
d="M311 887l-145 -8l166 307q-44 15 -66 51q-24 37 -24 80q0 61 41 102t102 41q63 0 102 -39q41 -41 41 -98q0 -17 -6 -35q-3 -15 -18 -45z" />
    <glyph glyph-name="quotesinglbase" unicode="&#x201a;" horiz-adv-x="505" 
d="M127 -324l-145 -8l165 307q-42 15 -65 52q-25 39 -25 79q0 62 41 103t103 41q63 0 102 -39q41 -41 41 -98q0 -17 -6 -35q-2 -12 -19 -45z" />
    <glyph glyph-name="quotedblleft" unicode="&#x201c;" horiz-adv-x="851" 
d="M377 1440h141l-166 -307q43 -15 66 -52q24 -37 24 -80q0 -61 -39 -100t-100 -39t-102 41t-41 98q0 17 6 35l18 47zM735 1440h142l-166 -307q42 -15 65 -52q25 -39 25 -80q0 -61 -39 -100t-100 -39q-62 0 -103 41t-41 98q0 17 6 35l19 47z" />
    <glyph glyph-name="quotedblright" unicode="&#x201d;" horiz-adv-x="856" 
d="M311 887l-145 -8l166 307q-44 15 -66 51q-24 37 -24 80q0 61 41 102t102 41q63 0 102 -39q41 -41 41 -98q0 -17 -6 -35q-3 -15 -18 -45zM670 879l-146 -9l166 308q-43 15 -65 51q-25 39 -25 80q0 61 41 102t102 41q64 0 103 -39q41 -41 41 -98q0 -17 -6 -35
q-2 -12 -19 -45z" />
    <glyph glyph-name="quotedblbase" unicode="&#x201e;" horiz-adv-x="866" 
d="M127 -324l-145 -8l165 307q-42 15 -65 52q-25 39 -25 79q0 62 41 103t103 41q63 0 102 -39q41 -41 41 -98q0 -17 -6 -35q-2 -12 -19 -45zM485 -332l-145 -8l166 307q-44 15 -66 51q-24 37 -24 80q0 62 41 103t102 41q64 0 103 -39q40 -40 40 -99q0 -16 -6 -34
q-3 -15 -18 -45z" />
    <glyph glyph-name="dagger" unicode="&#x2020;" horiz-adv-x="968" 
d="M113 879l22 157h326l53 377l195 43l-60 -420h328l-23 -157h-327l-119 -850l-195 -45l125 895h-325z" />
    <glyph glyph-name="daggerdbl" unicode="&#x2021;" horiz-adv-x="1030" 
d="M78 408l22 157h328l43 314h-326l21 157h328l53 377l194 43l-59 -420h326l-21 -157h-328l-43 -314h326l-22 -157h-326l-53 -379l-195 -45l60 424h-328z" />
    <glyph glyph-name="bullet" unicode="&#x2022;" horiz-adv-x="774" 
d="M647 752h-2q0 -95 -67 -162q-68 -68 -168 -68q-99 0 -164 68q-66 72 -66 162q0 100 66 166q65 65 166 65q97 0 168 -65q67 -64 67 -166z" />
    <glyph glyph-name="ellipsis" unicode="&#x2026;" horiz-adv-x="1318" 
d="M336 113l-2 -7q0 -57 -41 -98q-39 -39 -103 -39q-57 0 -98 41q-39 39 -39 99q0 63 39 102q41 41 101 41q63 0 102 -39q41 -41 41 -100zM748 106l-3 -6q0 -58 -40 -98q-39 -39 -103 -39q-57 0 -98 41q-39 39 -39 98q0 64 39 103q41 41 100 41q64 0 103 -39q41 -41 41 -101
zM1159 100l-2 -6q0 -57 -41 -98q-39 -39 -102 -39q-58 0 -99 41q-38 38 -38 98q0 65 38 103q41 41 101 41q63 0 102 -39q41 -41 41 -101z" />
    <glyph glyph-name="perthousand" unicode="&#x2030;" horiz-adv-x="2373" 
d="M848 1116l2 4q0 -143 -98 -241q-99 -99 -248 -99q-143 0 -248 97q-98 94 -98 239q0 144 98 238q104 96 246 96q144 0 248 -96q98 -94 98 -238zM1360 1444h180l-1233 -1440h-180zM315 1118h2q0 -79 56 -135q55 -55 135 -55q83 0 135 55q53 59 53 135q0 80 -55 135
q-56 56 -135 56t-135 -56t-56 -135zM1507 330q0 -146 -98 -240q-104 -96 -246 -96q-144 0 -248 96q-98 94 -98 240q0 145 98 239q105 97 248 97q141 0 246 -97q98 -94 98 -239zM2286 330q0 -146 -99 -240q-104 -96 -245 -96q-144 0 -248 96q-99 94 -99 240q0 144 99 239
q105 97 248 97q140 0 245 -97q99 -95 99 -239zM975 330q0 -82 53 -135q54 -54 135 -54t135 54t54 135q0 75 -54 135q-52 55 -133 55q-80 0 -135 -55t-55 -135zM1751 330h-2q0 -83 55 -135q60 -54 138 -54q81 0 135 54q53 53 53 135q0 76 -53 135q-52 55 -133 55
q-83 0 -138 -55t-55 -135z" />
    <glyph glyph-name="guilsinglleft" unicode="&#x2039;" horiz-adv-x="604" 
d="M254 72l-160 448l287 451h188l-293 -461l156 -438h-178z" />
    <glyph glyph-name="guilsinglright" unicode="&#x203a;" horiz-adv-x="604" 
d="M350 971l160 -449l-287 -450h-188l293 460l-156 439h178z" />
    <glyph glyph-name="fraction" unicode="&#x2044;" horiz-adv-x="307" 
d="M707 1440h180l-1233 -1440h-180z" />
    <glyph glyph-name="zero.superior" unicode="&#x2070;" horiz-adv-x="692" 
d="M432 995l6 6q-127 0 -198 80t-56 203l31 219q15 113 92 178q76 64 191 64q131 0 202 -80q72 -81 54 -203l-33 -219q-15 -119 -92 -184q-76 -64 -197 -64zM494 1606h2q-49 0 -88 -31q-37 -29 -43 -84l-27 -209q-9 -57 22 -98q30 -37 89 -37q50 0 86 31q34 29 43 86l28 206
q9 57 -22 99q-30 37 -90 37z" />
    <glyph glyph-name="four.superior" unicode="&#x2074;" horiz-adv-x="659" 
d="M150 1260l342 469h176l-334 -453h182l19 127l147 33l-23 -160h58l-19 -137h-61l-16 -131h-144l17 131h-363z" />
    <glyph glyph-name="five.superior" unicode="&#x2075;" horiz-adv-x="624" 
d="M324 1309l-119 24l92 400h399l-20 -136h-275l-30 -133l32 6q21 3 37 3q106 0 172 -60q64 -58 64 -153q0 -114 -76 -187q-77 -74 -192 -74q-117 0 -187 64q-74 65 -74 162h154q3 -39 31 -64q27 -24 67 -24q52 0 86 30q35 30 35 80q0 44 -31 72q-37 29 -77 29q-27 0 -45 -9
q-23 -10 -43 -30z" />
    <glyph glyph-name="six.superior" unicode="&#x2076;" horiz-adv-x="630" 
d="M688 1264v4q0 -115 -82 -191q-84 -78 -203 -78q-107 0 -178 68q-69 66 -69 166q0 57 28 127q29 65 84 129l205 242h178l-211 -244h11q106 0 170 -64q67 -64 67 -159zM307 1239v4q0 -45 31 -76q30 -30 76 -30q56 0 90 34q35 35 35 91q0 46 -31 77t-76 31q-52 0 -88 -39
q-37 -40 -37 -92z" />
    <glyph glyph-name="seven.superior" unicode="&#x2077;" horiz-adv-x="585" 
d="M510 1585h-313l20 144h494l-17 -123l-362 -598h-176z" />
    <glyph glyph-name="eight.superior" unicode="&#x2078;" horiz-adv-x="661" 
d="M238 1540l-7 -4q0 82 68 141q72 60 172 60q103 0 166 -51q65 -53 65 -130q0 -55 -26 -100q-27 -47 -80 -74q43 -27 68 -69q24 -43 24 -88q0 -100 -76 -164q-78 -66 -196 -66q-107 0 -185 60q-75 57 -75 151q0 69 37 121q38 53 102 80q-29 29 -43 61q-14 28 -14 72z
M369 1528l-2 4q0 -38 24 -62t68 -24q49 0 76 27q30 27 30 67q0 34 -26 57q-28 25 -68 25q-47 0 -74 -27q-28 -28 -28 -67zM412 1118l2 2q56 0 92 31q35 30 35 80q0 46 -33 72q-36 28 -86 28q-53 0 -86 -33t-33 -86q0 -39 31 -67q27 -27 78 -27z" />
    <glyph glyph-name="nine.superior" unicode="&#x2079;" horiz-adv-x="630" 
d="M180 1473l-4 -5q0 115 82 191q84 78 203 78q107 0 178 -68q72 -69 72 -166q0 -55 -29 -127q-29 -65 -84 -129l-205 -241h-178l211 243h-10q-104 0 -168 64q-68 65 -68 160zM557 1497v-6q0 45 -31 76q-30 30 -75 30q-57 0 -91 -34t-34 -90q0 -46 30 -76q31 -31 76 -31
q52 0 88 39q37 40 37 92z" />
    <glyph glyph-name="zero.inferior" unicode="&#x2080;" horiz-adv-x="692" 
d="M250 -301l6 6q-128 0 -199 80q-70 79 -55 203l31 219q15 113 92 178q76 64 190 64q132 0 203 -80t53 -203l-32 -219q-15 -119 -93 -185q-75 -63 -196 -63zM311 309h2q-51 0 -88 -30q-37 -29 -43 -84l-26 -209q-9 -57 22 -99q30 -37 88 -37q50 0 86 31q34 29 43 86l29 207
q9 55 -23 98q-30 37 -90 37z" />
    <glyph glyph-name="one.inferior" unicode="&#x2081;" horiz-adv-x="425" 
d="M207 -289h-150l82 578h-143l53 143h260z" />
    <glyph glyph-name="two.inferior" unicode="&#x2082;" horiz-adv-x="655" 
d="M201 -145l291 4l-21 -144h-522l18 133l312 242q45 36 67 68q21 27 21 63q0 40 -25 62q-28 22 -68 22q-36 0 -73 -29q-32 -25 -41 -73h-152q21 108 98 176q76 67 185 67t176 -55q68 -56 68 -145q0 -70 -35 -129q-36 -61 -142 -142z" />
    <glyph glyph-name="three.inferior" unicode="&#x2083;" horiz-adv-x="649" 
d="M352 -63h-8q0 46 -31 71t-80 25h-67l16 110h76q50 0 78 25q29 26 29 68q0 34 -25 59q-24 24 -66 24t-69 -24q-27 -21 -33 -68h-156q18 98 90 158q71 59 173 59q113 0 176 -51q65 -53 65 -131q0 -56 -28 -104t-84 -72q47 -24 67 -63q23 -44 23 -89q0 -97 -74 -165
t-195 -68q-120 0 -190 61t-70 160h148q3 -42 35 -67q27 -27 79 -27q50 0 86 31q35 30 35 78z" />
    <glyph glyph-name="four.inferior" unicode="&#x2084;" horiz-adv-x="659" 
d="M-33 -37l342 469h176l-333 -452h182l18 126l148 33l-23 -159h58l-19 -138h-61l-17 -131h-143l16 131h-362z" />
    <glyph glyph-name="five.inferior" unicode="&#x2085;" horiz-adv-x="624" 
d="M141 12l-118 25l92 399h399l-20 -135h-275l-31 -133l33 6q14 2 37 2q107 0 172 -59q64 -58 64 -154q0 -113 -76 -186q-77 -74 -193 -74t-186 64q-74 65 -74 161h154q3 -38 31 -63t67 -25q50 0 86 31q35 30 35 80q0 44 -31 72q-36 28 -78 28q-29 0 -45 -8q-21 -9 -43 -31z
" />
    <glyph glyph-name="six.inferior" unicode="&#x2086;" horiz-adv-x="632" 
d="M508 -33v4q0 -114 -82 -190q-84 -78 -203 -78q-107 0 -178 68q-70 67 -70 166q0 54 29 126q29 67 84 130l205 241h178l-211 -244h10q107 0 170 -63q68 -65 68 -160zM127 -57v4q0 -45 31 -76t75 -31q56 0 91 35q34 34 34 90q0 48 -30 78q-31 31 -76 31q-52 0 -88 -39
q-37 -40 -37 -92z" />
    <glyph glyph-name="seven.inferior" unicode="&#x2087;" horiz-adv-x="581" 
d="M326 289h-314l21 143h493l-16 -123l-363 -598h-176z" />
    <glyph glyph-name="eight.inferior" unicode="&#x2088;" horiz-adv-x="661" 
d="M55 244l-6 -4q0 82 68 141q71 59 172 59q103 0 166 -51q65 -53 65 -129q0 -55 -26 -100q-27 -47 -80 -74q40 -25 67 -70q25 -45 25 -88q0 -100 -76 -164q-77 -65 -197 -65q-107 0 -184 59q-76 58 -76 152q0 69 37 121q38 53 103 80q-29 29 -43 61q-15 30 -15 72zM186 231
l-2 5q0 -37 25 -62q24 -24 67 -24q50 0 76 26q31 28 31 68q0 33 -27 57q-28 25 -67 25q-47 0 -74 -27q-29 -29 -29 -68zM229 -178l2 2q57 0 93 31q34 30 34 79q0 47 -32 72q-37 29 -86 29q-53 0 -86 -33t-33 -86q0 -40 31 -68q26 -26 77 -26z" />
    <glyph glyph-name="nine.inferior" unicode="&#x2089;" horiz-adv-x="628" 
d="M-2 176l-4 -4q0 114 82 190q84 78 203 78q108 0 178 -67q71 -68 71 -166q0 -57 -28 -127q-29 -65 -84 -129l-205 -242h-178l211 244h-11q-104 0 -167 63q-68 65 -68 160zM375 201v-6q0 44 -31 75t-76 31q-55 0 -90 -35t-35 -90q0 -45 31 -76q30 -30 76 -30q52 0 88 39
q37 40 37 92z" />
    <glyph glyph-name="franc" unicode="&#x20a3;" horiz-adv-x="1775" 
d="M326 0h-197l203 1440h817l-27 -180h-618l-66 -461h572l-25 -178h-571zM1217 1034l184 2l-23 -157q64 85 150 127q85 43 182 43q27 0 41 -2l35 -7l-27 -178l-39 6q-14 2 -43 2q-135 0 -227 -86t-113 -227l-80 -557h-188z" />
    <glyph glyph-name="Euro" unicode="&#x20ac;" horiz-adv-x="1363" 
d="M461 657l368 -6l-22 -153h-369q-15 -152 66 -248q79 -94 231 -94q132 0 221 86q90 87 111 241h195q-34 -242 -177 -379q-141 -135 -346 -135q-246 0 -381 144q-133 142 -112 387h-150l23 153h147l17 123h-154l21 154h153l6 41q34 233 178 362t361 129q205 0 344 -139
q137 -137 137 -375h-196q0 152 -82 240t-215 88q-132 0 -222 -84q-89 -83 -110 -234l-4 -24h364l-22 -154h-363z" />
    <glyph glyph-name="uni2113" unicode="&#x2113;" horiz-adv-x="890" 
d="M227 500l-159 -74l26 180l158 78l59 428q21 164 115 258q91 94 227 94q129 0 205 -73t76 -193q0 -162 -107 -299q-107 -136 -321 -258l-76 -43l-31 -213q-21 -133 13 -188q35 -56 131 -56q33 0 86 17q45 17 86 47l-25 -172q-52 -30 -92 -43q-44 -15 -98 -15
q-176 0 -246 99q-70 98 -43 309zM655 1298v-2q-59 0 -100 -47q-39 -44 -51 -135l-47 -328l20 13q141 80 213 176q72 97 72 203q0 54 -27 88q-25 32 -80 32z" />
    <glyph glyph-name="trademark" unicode="&#x2122;" horiz-adv-x="1830" 
d="M559 662h-151v634h-218v144h584v-144h-215v-634zM999 662h-147v778h170l262 -522l268 522h162v-778h-147v499l-254 -499h-62l-252 507v-507z" />
    <glyph glyph-name="Omega" unicode="&#x2126;" horiz-adv-x="1667" 
d="M639 0l-588 -2l25 178h375q-158 120 -230 256q-76 137 -76 305q0 301 222 514q227 213 538 213q299 0 492 -184q194 -185 194 -457q0 -204 -106 -364q-106 -161 -314 -279h312l-25 -178h-584l31 221q238 91 363 240q123 147 123 344q0 200 -142 336q-141 135 -352 135
q-235 0 -393 -162q-160 -165 -160 -389q0 -144 84 -278q87 -133 244 -224z" />
    <glyph glyph-name="estimated" unicode="&#x212e;" horiz-adv-x="1667" 
d="M881 86l-2 -6q179 0 331 96t228 258h139q-105 -217 -289 -340t-409 -123q-310 0 -529 219t-219 527t221 526q227 219 531 219q323 0 528 -217q207 -219 207 -577h-1153v-424q85 -76 194 -117q112 -41 222 -41zM877 1346v2q-112 0 -224 -41q-105 -40 -192 -117v-410h821
v420q-84 72 -188 109t-217 37z" />
    <glyph glyph-name="uni2153" unicode="&#x2153;" horiz-adv-x="1449" 
d="M395 719h-149l82 577h-144l54 144h260zM1233 1440h180l-1233 -1440h-180zM1180 225h-9q0 48 -30 72q-31 25 -80 25h-68l17 110h75q50 0 78 25q29 26 29 67q0 35 -25 60q-24 24 -65 24q-43 0 -70 -24q-27 -21 -33 -68h-155q18 98 90 158q71 59 172 59q113 0 176 -51
q66 -54 66 -131q0 -55 -29 -105q-27 -46 -84 -71q48 -25 68 -64q22 -42 22 -88q0 -98 -74 -166q-73 -67 -194 -67t-191 61q-69 60 -69 160h147q3 -43 35 -68q26 -26 80 -26q51 0 86 30t35 78z" />
    <glyph glyph-name="uni2154" unicode="&#x2154;" horiz-adv-x="1624" 
d="M360 862l291 4l-20 -143h-522l18 133l311 242q48 39 68 67q20 26 20 64q0 40 -24 61q-30 23 -68 23q-37 0 -74 -29q-31 -25 -41 -74h-151q21 108 98 176t185 68q109 0 176 -55t67 -146q0 -70 -35 -129q-36 -61 -141 -141zM1399 1444h180l-1233 -1440h-180zM1346 229h-9
q0 48 -30 72q-31 25 -80 25h-68l17 110h75q50 0 78 25q29 26 29 67q0 35 -25 60q-24 24 -65 24q-43 0 -70 -24q-27 -21 -33 -68h-155q18 98 90 158q71 59 172 59q113 0 176 -51q65 -53 65 -131q0 -56 -28 -104t-84 -72q46 -24 67 -64q23 -44 23 -88q0 -98 -74 -166
q-73 -67 -194 -67t-191 61q-69 60 -69 160h147q3 -43 35 -68q26 -26 80 -26q50 0 86 31q35 30 35 77z" />
    <glyph glyph-name="uni2155" unicode="&#x2155;" horiz-adv-x="1447" 
d="M1233 1440h180l-1233 -1440h-180zM395 719h-149l82 577h-144l54 144h260zM977 301l-119 25l92 399h400l-21 -135h-274l-31 -133l33 6q14 2 37 2q107 0 172 -59q63 -57 63 -154q0 -113 -76 -186q-77 -74 -192 -74q-118 0 -187 63q-73 64 -73 162h153q3 -38 31 -63t68 -25
q50 0 86 31q35 30 35 80q0 43 -31 71q-37 29 -78 29q-29 0 -45 -8q-21 -9 -43 -31z" />
    <glyph glyph-name="uni2156" unicode="&#x2156;" horiz-adv-x="1611" 
d="M362 862l291 4l-20 -143h-522l18 133l311 242q48 39 68 67q20 26 20 64q0 40 -24 61q-30 23 -68 23q-37 0 -74 -29q-30 -24 -40 -74h-152q21 108 98 176t185 68q109 0 176 -55t67 -146q0 -71 -34 -129q-35 -59 -142 -141zM1389 1444h180l-1233 -1440h-180zM1135 305
l-119 25l92 399h399l-20 -135h-275l-30 -133l32 6q14 2 37 2q107 0 172 -59q64 -58 64 -154q0 -113 -76 -186q-77 -74 -192 -74q-118 0 -187 63q-74 65 -74 162h154q3 -38 31 -63t67 -25q50 0 86 31q35 30 35 80q0 43 -31 71q-37 29 -77 29q-29 0 -45 -8q-21 -9 -43 -31z
" />
    <glyph glyph-name="uni2157" unicode="&#x2157;" horiz-adv-x="1560" 
d="M1346 1440h180l-1233 -1440h-180zM1092 301l-119 25l92 399h399l-20 -135h-275l-30 -133l32 6q14 2 37 2q107 0 172 -59q64 -58 64 -154q0 -113 -76 -186q-77 -74 -192 -74q-118 0 -187 63q-74 65 -74 162h154q3 -38 31 -63t67 -25q50 0 86 31q35 30 35 80q0 43 -31 71
q-37 29 -77 29q-29 0 -45 -8q-21 -9 -43 -31zM514 948h-8q0 47 -31 72q-30 24 -80 24h-67l16 111h76q50 0 78 25t28 67q0 36 -24 60t-66 24t-69 -24q-27 -21 -33 -68h-156q18 98 90 158q71 59 172 59q113 0 176 -51q66 -54 66 -131q0 -55 -29 -105q-27 -46 -84 -71
q48 -25 68 -64q22 -42 22 -88q0 -99 -73 -166t-195 -67q-120 0 -190 61t-70 160h148q3 -44 34 -68q26 -26 80 -26q51 0 86 30t35 78z" />
    <glyph glyph-name="uni2158" unicode="&#x2158;" horiz-adv-x="1603" 
d="M131 971l342 469h176l-334 -453h183l18 127l148 33l-23 -160h57l-18 -137h-62l-16 -131h-143l16 131h-362zM1380 1440h181l-1233 -1440h-181zM1124 301l-118 25l92 399h399l-20 -135h-275l-31 -133l33 6q14 2 37 2q107 0 172 -59q64 -58 64 -154q0 -113 -76 -186
q-77 -74 -193 -74q-117 0 -186 63q-74 65 -74 162h154q3 -38 31 -63t67 -25q50 0 86 31q35 30 35 80q0 43 -31 71q-37 29 -78 29q-29 0 -45 -8q-21 -9 -43 -31z" />
    <glyph glyph-name="uni2159" unicode="&#x2159;" horiz-adv-x="1406" 
d="M1290 256v4q0 -114 -82 -190q-84 -78 -202 -78q-109 0 -179 67q-69 66 -69 166q0 57 28 127q29 65 84 129l205 242h178l-211 -244h11q107 0 170 -63q67 -64 67 -160zM909 231v5q0 -45 31 -76t76 -31q55 0 90 35t35 90q0 47 -31 78q-30 30 -76 30q-53 0 -88 -38
q-37 -40 -37 -93zM395 727h-149l82 578h-144l54 143h260zM1233 1448h180l-1233 -1440h-180z" />
    <glyph glyph-name="uni215A" unicode="&#x215a;" horiz-adv-x="1540" 
d="M1419 256v4q0 -114 -82 -190q-84 -78 -202 -78q-109 0 -179 67q-69 66 -69 166q0 57 28 127q29 65 84 129l205 242h178l-211 -244h11q107 0 170 -63q67 -64 67 -160zM1038 231v5q0 -45 31 -76t76 -31q55 0 90 35t35 90q0 47 -31 78q-30 30 -76 30q-53 0 -88 -38
q-37 -40 -37 -93zM1362 1448h180l-1233 -1440h-180zM309 1028l-119 25l93 399h399l-20 -135h-275l-31 -133l33 6q14 2 37 2q107 0 172 -59q64 -58 64 -154q0 -113 -76 -186q-77 -74 -193 -74q-117 0 -186 63q-74 65 -74 162h154q3 -39 30 -63q28 -25 68 -25q50 0 86 31
q35 30 35 80q0 43 -31 71q-37 29 -78 29q-29 0 -45 -8q-21 -9 -43 -31z" />
    <glyph glyph-name="uni215B" unicode="&#x215b;" horiz-adv-x="1445" 
d="M1233 1440h180l-1233 -1440h-180zM395 719h-149l82 577h-144l54 144h260zM866 532l-6 -4q0 83 68 142q71 59 172 59q103 0 166 -51q65 -53 65 -129q0 -55 -26 -100q-27 -47 -80 -74q40 -25 67 -70q25 -45 25 -88q0 -100 -76 -164q-77 -65 -197 -65q-107 0 -184 59
q-76 58 -76 152q0 68 37 120q38 53 103 80q-28 28 -43 62q-15 30 -15 71zM997 520l-2 4q0 -36 25 -61t67 -25q49 0 76 27q31 28 31 67q0 34 -27 58t-67 24q-48 0 -74 -26q-29 -29 -29 -68zM1040 111l2 2q58 0 93 30q34 30 34 80q0 47 -32 72q-37 29 -86 29q-53 0 -86 -33
t-33 -86q0 -40 31 -68q26 -26 77 -26z" />
    <glyph glyph-name="uni215C" unicode="&#x215c;" horiz-adv-x="1564" 
d="M1352 1440h180l-1233 -1440h-180zM985 532l-6 -4q0 83 68 142q71 59 172 59q102 0 165 -51q66 -54 66 -129q0 -53 -27 -100t-80 -74q42 -26 68 -70q25 -45 25 -88q0 -100 -76 -164q-77 -65 -197 -65q-107 0 -184 59q-76 58 -76 152q0 68 37 120q38 53 102 80
q-28 28 -43 62q-14 28 -14 71zM1116 520l-2 4q0 -36 25 -61t67 -25q49 0 76 27q31 28 31 67q0 34 -27 58t-67 24q-48 0 -74 -26q-29 -29 -29 -68zM1159 111l2 2q57 0 92 30t35 80q0 46 -33 72q-37 29 -86 29q-53 0 -86 -33q-32 -32 -32 -86q0 -41 30 -68q26 -26 78 -26z
M506 946h-8q0 47 -31 72q-30 24 -80 24h-68l17 111h76q49 0 77 25q29 26 29 67q0 36 -24 60t-66 24q-43 0 -70 -24q-26 -20 -32 -68h-156q18 98 90 158q71 59 172 59q113 0 176 -51q66 -54 66 -131q0 -55 -29 -105q-27 -46 -84 -71q48 -25 68 -64q22 -42 22 -88
q0 -99 -73 -166t-195 -67q-120 0 -190 61t-70 160h147q3 -43 35 -68q26 -26 80 -26q51 0 86 30t35 78z" />
    <glyph glyph-name="uni215D" unicode="&#x215d;" horiz-adv-x="1579" 
d="M1362 1440h180l-1233 -1440h-180zM309 1020l-119 24l93 400h399l-20 -135h-275l-31 -133l33 6q14 2 37 2q106 0 172 -60q64 -58 64 -153q0 -114 -76 -187t-193 -73t-186 63q-74 65 -74 162h154q3 -40 30 -64t68 -24q50 0 86 31q35 30 35 79q0 44 -31 72q-37 29 -78 29
q-29 0 -45 -8q-21 -9 -43 -31zM997 537l-6 -5q0 83 68 142q71 59 172 59q103 0 166 -51q65 -53 65 -129q0 -55 -26 -100q-27 -47 -80 -74q40 -25 67 -70q25 -45 25 -88q0 -100 -76 -164q-77 -65 -196 -65q-108 0 -185 59q-76 58 -76 152q0 69 37 121q37 51 103 79
q-28 28 -43 62q-15 30 -15 72zM1128 524l-2 4q0 -36 25 -61t68 -25q48 0 75 27q31 28 31 68q0 33 -27 57t-67 24q-48 0 -74 -26q-29 -29 -29 -68zM1171 115l3 2q58 0 92 30t34 80q0 47 -32 72q-37 29 -86 29q-53 0 -86 -33t-33 -86q0 -40 31 -68q26 -26 77 -26z" />
    <glyph glyph-name="uni215E" unicode="&#x215e;" horiz-adv-x="1462" 
d="M516 1296h-313l20 144h494l-17 -123l-362 -598h-176zM1241 1440h180l-1233 -1440h-180zM885 532l-6 -4q0 84 67 142q71 59 172 59q103 0 166 -51q66 -54 66 -129q0 -53 -27 -100t-80 -74q42 -26 68 -70q24 -43 24 -88q0 -101 -75 -164q-77 -65 -197 -65q-107 0 -184 59
q-76 58 -76 152q0 68 37 120q38 53 102 80q-28 28 -43 62q-14 28 -14 71zM1016 520l-2 4q0 -37 24 -61q25 -25 68 -25q49 0 76 27q30 27 30 67q0 35 -26 58q-27 24 -68 24q-48 0 -74 -26q-28 -28 -28 -68zM1059 111l2 2q57 0 92 30t35 80q0 46 -33 72q-37 29 -86 29
q-53 0 -86 -33t-33 -86q0 -40 31 -68q26 -26 78 -26z" />
    <glyph glyph-name="uni215F" unicode="&#x215f;" horiz-adv-x="1374" 
d="M438 719h-149l82 577h-144l54 144h260zM1272 1440h180l-1233 -1440h-180z" />
    <glyph glyph-name="partialdiff" unicode="&#x2202;" horiz-adv-x="1236" 
d="M391 1370l21 168q368 -37 555 -242q186 -204 186 -579q0 -343 -164 -543q-163 -199 -436 -199q-212 0 -358 140q-144 138 -144 344q0 223 156 379q156 159 371 159q137 0 239 -51q106 -51 168 -147q-18 249 -168 393q-149 143 -426 178zM946 512q0 137 -96 227t-238 90
q-160 0 -266 -106q-110 -107 -110 -258q0 -134 96 -227t239 -93q150 0 265 109q110 107 110 258z" />
    <glyph glyph-name="Delta" unicode="&#x2206;" horiz-adv-x="1333" 
d="M1219 145l-21 -145h-1206l20 145l678 1295h211zM770 1214l-530 -1038h768z" />
    <glyph glyph-name="product" unicode="&#x220f;" horiz-adv-x="1511" 
d="M403 0h-206l176 1260h-195l23 180h1364l-25 -180h-194l-177 -1260h-206l176 1260h-559z" />
    <glyph glyph-name="summation" unicode="&#x2211;" horiz-adv-x="1204" 
d="M186 1300l19 140h1028l-25 -180h-780l342 -508l-479 -572h784l-24 -180h-1041l17 129l534 625z" />
    <glyph glyph-name="minus" unicode="&#x2212;" horiz-adv-x="1167" 
d="M147 643v150h924v-150h-924z" />
    <glyph glyph-name="uni2215" unicode="&#x2215;" horiz-adv-x="307" 
d="M707 1440h180l-1233 -1440h-180z" />
    <glyph glyph-name="uni2219" unicode="&#x2219;" horiz-adv-x="856" 
d="M688 752h-2q0 -94 -68 -162t-167 -68t-164 68q-66 72 -66 162q0 100 66 166q65 65 166 65q97 0 168 -65q67 -64 67 -166z" />
    <glyph glyph-name="radical" unicode="&#x221a;" horiz-adv-x="1126" 
d="M573 0h-211l-143 752h-151l24 166h289l117 -666l536 1188h199z" />
    <glyph glyph-name="infinity" unicode="&#x221e;" horiz-adv-x="1613" 
d="M1513 563l-8 -2q0 -163 -110 -270q-115 -109 -260 -109q-109 0 -183 51q-79 52 -159 179q-93 -125 -179 -179q-80 -51 -208 -51q-129 0 -218 92q-88 88 -88 230q0 162 111 270q115 109 262 109q102 0 184 -52q87 -55 164 -172q98 119 191 172q97 54 196 54q128 0 217 -92
q88 -88 88 -230zM455 729l2 -4q-88 0 -148 -63q-61 -64 -61 -156q0 -76 47 -129q46 -49 117 -49q82 0 153 47q65 44 150 157q-66 105 -127 154q-58 43 -133 43zM1356 543l-2 -2q0 80 -47 133q-46 49 -117 49q-80 0 -148 -45q-71 -47 -149 -150q68 -116 129 -161
q55 -43 123 -43q89 0 149 63q62 65 62 156z" />
    <glyph glyph-name="integral" unicode="&#x222b;" horiz-adv-x="825" 
d="M594 1161l-182 -1267q-27 -185 -119 -277q-88 -88 -260 -88q-45 0 -88 6q-45 6 -86 21l20 165l64 -16q34 -6 67 -6q97 0 148 51q52 52 67 160l178 1259q27 189 121 277q96 90 262 90q48 0 91 -6q35 -5 84 -19l-23 -165q-1 0 -61 16q-35 6 -68 6q-95 0 -147 -49
q-53 -50 -68 -158z" />
    <glyph glyph-name="approxequal" unicode="&#x2248;" horiz-adv-x="1167" 
d="M647 981v-2q62 -33 103 -43q27 -8 67 -8q57 0 111 28q49 28 106 109v-170q-36 -57 -96 -92q-56 -33 -133 -33q-45 0 -88 12q-36 9 -113 47q-64 34 -104 43q-50 11 -82 11q-71 0 -129 -37q-64 -42 -103 -107v166q29 57 99 99q61 38 143 38q46 0 92 -12q53 -13 127 -49z
M647 598v-2q62 -33 103 -43q27 -8 67 -8q57 0 111 28q49 28 106 109v-170q-36 -57 -96 -92q-56 -33 -133 -33q-45 0 -88 12q-36 9 -113 47q-64 34 -104 43q-50 11 -82 11q-71 0 -129 -37q-64 -42 -103 -107v166q29 57 99 99q61 38 143 38q46 0 92 -12q53 -13 127 -49z" />
    <glyph glyph-name="notequal" unicode="&#x2260;" horiz-adv-x="1167" 
d="M436 254h-153l96 174h-232v152h318l151 274h-469v152h555l97 174h153l-96 -174h215v-152h-301l-152 -274h453v-152h-539z" />
    <glyph glyph-name="lessequal" unicode="&#x2264;" horiz-adv-x="1167" 
d="M981 317l-817 390v153l817 387v-182l-598 -283l598 -280v-185zM164 10v152h817v-152h-817z" />
    <glyph glyph-name="greaterequal" unicode="&#x2265;" horiz-adv-x="1167" 
d="M197 317v185l598 280l-598 283v182l817 -387v-153zM1014 10h-817v152h817v-152z" />
    <glyph glyph-name="lozenge" unicode="&#x25ca;" horiz-adv-x="1245" 
d="M590 -25l-490 773l494 716h117l495 -716l-491 -773h-125zM653 1257l-354 -509l354 -560l355 560z" />
    <glyph glyph-name="zero.denominator" unicode="&#xf655;" horiz-adv-x="692" 
d="M291 -12l6 6q-128 0 -199 80q-70 79 -55 202l31 220q15 113 92 178q75 63 190 63q132 0 203 -80t53 -202l-32 -219q-15 -119 -93 -185q-75 -63 -196 -63zM352 598h2q-49 0 -88 -31q-37 -29 -43 -84l-26 -209q-9 -57 22 -98q30 -37 88 -37q50 0 86 31q34 29 43 86l29 207
q9 55 -23 98q-30 37 -90 37z" />
    <glyph glyph-name="one.denominator" unicode="&#xf656;" horiz-adv-x="428" 
d="M250 0h-150l82 578h-143l53 143h260z" />
    <glyph glyph-name="two.denominator" unicode="&#xf657;" horiz-adv-x="655" 
d="M242 143l290 4l-20 -143h-522l18 133l311 242q48 39 68 67q21 27 21 64q0 39 -25 61q-30 23 -68 23q-36 0 -73 -29q-32 -25 -41 -73h-152q21 108 98 176q76 67 185 67t176 -55t67 -145q0 -71 -34 -129q-36 -61 -142 -142z" />
    <glyph glyph-name="three.denominator" unicode="&#xf658;" horiz-adv-x="649" 
d="M393 225h-8q0 47 -31 72t-80 25h-67l16 110h76q50 0 78 25q29 26 29 67q0 35 -25 60q-24 24 -66 24t-69 -24q-27 -21 -33 -68h-156q18 98 90 158q71 59 172 59q114 0 177 -51q65 -53 65 -131q0 -55 -29 -105q-27 -47 -83 -71q46 -24 67 -64q23 -44 23 -88q0 -98 -74 -166
q-73 -67 -195 -67q-120 0 -190 61t-70 160h148q3 -43 35 -68q26 -26 79 -26q52 0 86 30q35 30 35 78z" />
    <glyph glyph-name="four.denominator" unicode="&#xf659;" horiz-adv-x="661" 
d="M8 252l342 469h176l-333 -453h182l18 127l148 33l-23 -160h57l-18 -137h-61l-17 -131h-143l16 131h-362z" />
    <glyph glyph-name="five.denominator" unicode="&#xf65a;" horiz-adv-x="624" 
d="M182 301l-119 25l93 399h399l-20 -135h-275l-31 -133l33 6q14 2 37 2q107 0 172 -59q64 -58 64 -154q0 -113 -76 -186q-77 -74 -193 -74q-117 0 -186 63q-74 65 -74 162h154q3 -39 30 -63q28 -25 68 -25q50 0 86 31q35 30 35 80q0 43 -31 71q-37 29 -78 29q-29 0 -45 -8
q-21 -9 -43 -31z" />
    <glyph glyph-name="six.denominator" unicode="&#xf65b;" horiz-adv-x="628" 
d="M545 256v4q0 -114 -82 -190q-84 -78 -203 -78q-108 0 -178 67t-70 166q0 55 29 127q29 65 84 129l205 242h178l-211 -244h10q107 0 170 -63q68 -65 68 -160zM164 231v5q0 -45 31 -76t75 -31q55 0 90 35t35 90q0 48 -30 78t-76 30q-53 0 -88 -38q-37 -40 -37 -93z" />
    <glyph glyph-name="seven.denominator" unicode="&#xf65c;" horiz-adv-x="585" 
d="M369 578h-314l21 143h493l-16 -123l-363 -598h-176z" />
    <glyph glyph-name="eight.denominator" unicode="&#xf65d;" horiz-adv-x="661" 
d="M96 532l-6 -4q0 83 68 142q71 59 172 59q103 0 166 -51q65 -53 65 -129q0 -55 -26 -100q-27 -47 -80 -74q40 -25 67 -70q25 -45 25 -88q0 -100 -76 -164q-77 -65 -197 -65q-107 0 -184 59q-76 58 -76 152q0 68 37 120q38 53 103 80q-28 28 -43 62q-15 30 -15 71zM227 520
l-2 4q0 -36 25 -61t67 -25q49 0 76 27q31 28 31 67q0 34 -27 58t-67 24q-48 0 -74 -26q-29 -29 -29 -68zM270 111l2 2q58 0 93 30q34 30 34 80q0 47 -32 72q-37 29 -86 29q-53 0 -86 -33t-33 -86q0 -40 31 -68q26 -26 77 -26z" />
    <glyph glyph-name="nine.denominator" unicode="&#xf65e;" horiz-adv-x="630" 
d="M39 465l-4 -4q0 114 82 190q84 78 202 78q109 0 179 -67q71 -68 71 -166q0 -57 -28 -127q-29 -65 -84 -129l-205 -242h-178l211 244h-11q-105 0 -168 63q-67 64 -67 160zM416 489v-6q0 45 -31 76t-76 31q-55 0 -90 -35t-35 -90q0 -45 31 -76t76 -31q52 0 88 39
q37 40 37 92z" />
    <glyph glyph-name="zero.numerator" unicode="&#xf661;" horiz-adv-x="692" 
d="M391 707l6 6q-127 0 -198 80t-56 202l31 219q15 114 92 179q75 63 191 63q131 0 202 -80q72 -81 54 -202l-33 -220q-15 -119 -92 -184q-75 -63 -197 -63zM453 1317h2q-49 0 -88 -31q-37 -29 -43 -84l-27 -209q-9 -57 22 -98q30 -37 89 -37q50 0 86 31q34 29 43 86l28 207
q9 57 -22 98q-30 37 -90 37z" />
    <glyph glyph-name="one.numerator" unicode="&#xf662;" horiz-adv-x="425" 
d="M348 719h-149l82 577h-144l53 144h261z" />
    <glyph glyph-name="two.numerator" unicode="&#xf663;" horiz-adv-x="657" 
d="M344 862l291 4l-21 -143h-522l19 133l311 242q46 37 67 67q21 27 21 64q0 39 -25 61q-30 23 -67 23t-74 -29q-31 -25 -41 -74h-151q21 108 98 176t184 68q109 0 176 -55q68 -56 68 -146q0 -70 -35 -129q-36 -61 -141 -141z" />
    <glyph glyph-name="three.numerator" unicode="&#xf664;" horiz-adv-x="649" 
d="M494 944h-9q0 48 -30 72t-80 24h-68l17 111h75q50 0 78 25q29 26 29 67q0 35 -25 60q-24 24 -65 24q-43 0 -70 -24q-27 -21 -33 -68h-155q18 98 90 158q71 59 172 59q113 0 176 -51q66 -54 66 -131q0 -55 -29 -105q-27 -46 -84 -71q46 -24 67 -64q23 -44 23 -88
q0 -98 -74 -166q-73 -67 -194 -67t-191 61q-69 60 -69 160h147q3 -43 35 -68q26 -26 80 -26q51 0 86 30t35 78z" />
    <glyph glyph-name="four.numerator" unicode="&#xf665;" horiz-adv-x="659" 
d="M109 971l342 469h176l-334 -453h182l19 127l147 33l-23 -160h58l-19 -137h-61l-16 -131h-144l17 131h-363z" />
    <glyph glyph-name="five.numerator" unicode="&#xf666;" horiz-adv-x="624" 
d="M283 1020l-119 24l92 400h399l-20 -135h-275l-30 -133l32 6q14 2 37 2q106 0 172 -60q64 -58 64 -153q0 -114 -76 -187t-192 -73q-118 0 -187 63q-74 65 -74 162h154q3 -39 31 -64q27 -24 67 -24q50 0 86 31q35 30 35 79q0 45 -30 72q-37 29 -78 29q-29 0 -45 -8
q-21 -9 -43 -31z" />
    <glyph glyph-name="six.numerator" unicode="&#xf667;" horiz-adv-x="630" 
d="M647 975v4q0 -115 -82 -191q-83 -77 -203 -77q-108 0 -178 67q-69 66 -69 166q0 57 28 127q29 65 84 129l205 242h178l-211 -244h11q107 0 170 -63q67 -64 67 -160zM266 950v4q0 -44 31 -75t76 -31q55 0 90 35t35 90q0 47 -31 78q-30 30 -76 30q-52 0 -88 -39
q-37 -40 -37 -92z" />
    <glyph glyph-name="seven.numerator" unicode="&#xf668;" horiz-adv-x="583" 
d="M469 1296h-313l20 144h494l-17 -123l-362 -598h-176z" />
    <glyph glyph-name="eight.numerator" unicode="&#xf669;" horiz-adv-x="661" 
d="M197 1251l-7 -4q0 83 68 142q71 59 172 59q103 0 166 -51q66 -54 66 -129q0 -54 -27 -101q-26 -45 -80 -73q42 -26 68 -70q24 -44 24 -88q0 -100 -76 -164q-77 -65 -196 -65q-108 0 -185 59q-75 57 -75 152q0 68 37 120q38 53 102 80q-28 28 -43 62q-14 28 -14 71z
M328 1239l-2 4q0 -37 24 -61q25 -25 68 -25q49 0 76 27q30 27 30 67q0 35 -26 58q-27 24 -68 24q-48 0 -74 -26q-28 -28 -28 -68zM371 829l2 2q56 0 92 31q35 30 35 80q0 46 -33 72q-36 28 -86 28q-54 0 -86 -32q-33 -33 -33 -86q0 -40 31 -68q27 -27 78 -27z" />
    <glyph glyph-name="nine.numerator" unicode="&#xf66a;" horiz-adv-x="628" 
d="M139 1184l-4 -4q0 114 82 190q84 78 203 78q107 0 178 -68q72 -69 72 -166q0 -54 -29 -127q-29 -65 -84 -129l-205 -241h-178l211 244h-10q-105 0 -168 63q-68 65 -68 160zM516 1208v-6q0 45 -31 76t-75 31q-56 0 -91 -35q-34 -34 -34 -90q0 -46 30 -76q31 -31 76 -31
q52 0 88 39q37 40 37 92z" />
    <glyph glyph-name="commaaccent" unicode="&#xf6c3;" horiz-adv-x="348" 
d="M274 -274l-90 -238h-106l78 180q-38 9 -62 39t-24 68q0 48 30 78t78 30q50 0 80 -30q31 -31 31 -78q0 -15 -2 -19z" />
    <glyph glyph-name="uniF8FF" unicode="&#xf8ff;" horiz-adv-x="2945" 
d="M1518 1071v-74h63q6 0 18 -4q7 -3 7 -16v-55q0 -12 -7 -19q-6 -6 -18 -6h-63v-158q0 -17 12 -26q8 -8 37 -8h20q12 0 19 -7q6 -6 6 -18v-55q0 -13 -6 -19t-19 -6h-39q-80 0 -123 29q-36 26 -36 96v172h-35q-13 0 -19 6t-6 19v51q0 2 4 14q2 7 19 10l32 2h2v74q0 12 7 19
q6 6 18 6h80q14 0 20 -6q7 -7 7 -21zM717 999l82 -4q12 0 18 -6t6 -18v-13q34 25 62 35q37 11 59 11q33 0 62 -13q28 -13 43 -39q43 34 63 41q32 13 68 13q53 0 84 -31q30 -30 30 -80v-270q0 -13 -6 -19t-20 -6h-78q-15 0 -21 6t-6 19v237q0 21 -6 27t-22 6q-23 0 -39 -8
q-13 -7 -39 -25v-239q0 -13 -6 -19t-19 -6h-78q-14 0 -20 6t-6 19v237q0 21 -6 27t-25 6q-23 0 -39 -8q-18 -7 -37 -21v-239q0 -7 -4 -19q-3 -6 -16 -6h-84q-13 0 -19 6t-6 19v350q0 12 6 18t19 6zM2087 995h74q14 0 20 -6t6 -18l2 -15q33 26 60 35q33 10 61 10q58 0 88 -30
q31 -31 31 -90v-164q0 -58 -31 -94q-29 -33 -88 -33q-28 0 -61 10q-28 9 -56 31v-170q0 -13 -6 -19t-18 -6h-82q-13 0 -19 6t-6 19v510q0 12 6 18t19 6zM463 1004l-2 -3q83 0 127 -30q43 -30 43 -94v-89q0 -12 -6 -18t-19 -6h-190v-47q0 -18 12 -27q8 -8 37 -8q20 0 37 10
q12 9 12 29v2q0 12 6 18q7 7 19 7h65q12 0 19 -7q6 -6 6 -18v-6q0 -64 -41 -94q-42 -31 -123 -31q-85 0 -129 33q-45 33 -45 94v162q0 62 43 92q45 31 129 31zM2660 1001l-6 -2q84 0 127 -30t43 -95v-88q0 -12 -6 -18t-18 -6h-193v-47q0 -18 12 -27q8 -8 37 -8q20 0 37 10
q12 9 12 29v2q0 11 7 18q6 6 18 6h66q12 0 18 -6t6 -18v-6q0 -65 -39 -94q-42 -31 -123 -31q-88 0 -127 33q-43 34 -43 94v162q0 62 43 92t129 30zM1757 969l35 -146q6 -14 10 -45q1 -6 2 -13l1.5 -10.5t0.5 -6.5q3 3 9 26q3 8 6 24t6 23l49 148q3 16 10 18q12 4 17 4h75
q15 0 21 -6q6 -9 4 -16l-172 -510q-3 -11 -10 -17q-6 -6 -17 -6h-57q-15 0 -21 6t-2 17l33 121l-133 389q-4 11 2 16q6 6 23 6h82q4 0 16 -4q7 -2 10 -18zM444 903v-4q-28 0 -36 -8q-13 -10 -13 -27v-22h99v22q0 19 -13 29q-17 10 -37 10zM2644 899l2 -4q-29 0 -37 -8
q-12 -9 -12 -27v-22h96v22q0 20 -12 29q-17 10 -37 10zM2251 686l2 2q18 0 26 8q9 9 9 27v127q0 16 -9 22q-11 7 -26 7q-13 0 -31 -7q-9 -2 -45 -24v-129q10 -5 21.5 -11t17.5 -9.5t10 -6.5q12 -6 25 -6zM1149 459l-4 -84h96q6 0 6 -2v-6v-17q0 -6 -2 -8t-6 -2h-96v-254
q0 -33 24 -51q25 -19 78 -19h12q5 0 7 -2q4 -4 4 -6v-14q0 -4 -2 -6t-6 -2h-19q-66 0 -102 22q-31 22 -31 74v258h-51q-4 0 -6 2t-2 8v15q0 4 2 6l6 6h51v84v8q0 2 6 2h23l6 -6zM834 383l-9 2q69 0 105 -25q35 -24 35 -73v-101q0 -4 -2 -6t-7 -2h-233v-98q0 -33 25 -49
q31 -17 77 -17q43 0 74 17q25 16 25 49v16q0 4 2 6t12 2h18q7 0 9 -2t2 -6v-18q0 -52 -35 -76q-36 -25 -105 -25q-68 0 -104 25q-35 24 -35 74v209q0 49 37 73q39 25 109 25zM313 371l6 -43q38 27 68 37q35 12 68 12q52 0 80 -25t28 -67v-295q0 -4 -2 -6t-6 -2h-23h-6
q-2 0 -2 10v287q0 33 -20 47q-22 16 -62 16q-36 0 -71 -12t-56 -33v-303q0 -4 -2 -6t-6 -2h-22q-7 0 -9 2t-2 8v375q0 4 2 6t9 2h18q6 0 8 -2t2 -6zM831 342h-2q-46 0 -75 -16q-25 -16 -25 -50v-73h201v73q0 34 -25 50q-29 16 -74 16zM145 49v-61q0 -6 -2 -8q-3 -3 -8 -3
h-22q-4 0 -7 3q-2 2 -2 8v61q0 6 2 8t7 2h22q6 0 8 -2t2 -8z" />
    <glyph glyph-name="f_f" unicode="&#xfb00;" horiz-adv-x="1406" 
d="M477 866l-131 -866h-188l121 866h-179l25 168h176l21 144q27 180 122 272t258 92q48 0 91 -6q49 -6 86 -20l-25 -164l-63 16q-30 6 -62 6q-96 0 -147 -51q-53 -53 -68 -160l-18 -129h493l21 144q27 179 123 272q95 92 258 92q47 0 90 -6q49 -6 86 -20l-25 -164l-63 16
q-30 6 -62 6q-96 0 -147 -51q-53 -53 -68 -160l-18 -129h268l-25 -168h-266l-123 -866h-188l121 866h-494z" />
    <glyph glyph-name="fi" unicode="&#xfb01;" horiz-adv-x="1247" 
d="M477 866l-121 -862h-188l121 866h-178l24 168h176l21 144q23 174 121 272q95 92 258 92q45 0 86 -6q38 -6 80 -18l-23 -164q-33 9 -63 12q-46 4 -58 4q-96 0 -147 -51q-53 -53 -68 -160l-18 -129h268l-25 -168h-266zM973 1368v-2q0 57 37 94t98 37q59 0 96 -37t37 -92
t-37 -92t-96 -37q-61 0 -98 37t-37 92zM1010 2h-189l146 1034h188z" />
    <glyph glyph-name="fl" unicode="&#xfb02;" horiz-adv-x="1247" 
d="M477 866l-121 -862h-188l121 866h-178l24 168h176l21 144q23 174 121 272q95 92 258 92q45 0 86 -6q38 -6 80 -18l-23 -164q-33 9 -63 12q-46 4 -58 4q-96 0 -147 -51q-53 -53 -68 -160l-18 -129h268l-25 -168h-266zM1034 1522h189l-213 -1518h-189z" />
    <glyph glyph-name="f_f_i" unicode="&#xfb03;" horiz-adv-x="1931" 
d="M477 866l-127 -864h-188l121 866h-179l25 168h176l21 144q24 176 120 272q95 92 259 92q47 0 90 -6q49 -6 86 -20l-25 -164l-63 16q-30 6 -62 6q-96 0 -147 -51q-53 -53 -68 -160l-18 -129h493l21 144q23 174 121 272q95 92 258 92q41 0 84 -6q41 -5 84 -18l-23 -166
q-10 3 -30 7.5t-29 6.5q-30 6 -60 6q-96 0 -147 -51q-53 -53 -68 -160l-18 -129h268l-25 -168h-266l-123 -866h-188l121 866h-494zM1651 1366v-2q0 57 37 94t98 37q59 0 96 -37t37 -92t-37 -92t-96 -37q-61 0 -98 37t-37 92zM1688 0h-189l146 1034h188z" />
    <glyph glyph-name="f_f_l" unicode="&#xfb04;" horiz-adv-x="1931" 
d="M477 866l-127 -864h-188l121 866h-179l25 168h176l21 144q24 176 120 272q95 92 259 92q47 0 90 -6q49 -6 86 -20l-25 -164l-63 16q-30 6 -62 6q-96 0 -147 -51q-53 -53 -68 -160l-18 -129h493l21 144q23 174 121 272q95 92 258 92q41 0 84 -6q41 -5 84 -18l-23 -166
q-10 3 -30 7.5t-29 6.5q-30 6 -60 6q-96 0 -147 -51q-53 -53 -68 -160l-18 -129h268l-25 -168h-266l-123 -866h-188l121 866h-494zM1712 1520h189l-213 -1518h-189z" />
    <glyph glyph-name="longs_t" unicode="&#xfb05;" horiz-adv-x="1339" 
d="M444 1165l-168 -1169h-188l164 1178q27 188 121 276q96 90 262 90q45 0 92 -6q43 -6 88 -18l-24 -162l-68 16q-35 6 -64 6q-96 0 -147 -51q-53 -53 -68 -160zM1343 1030l-22 -162h-307l-74 -512q-15 -121 21 -166q37 -49 133 -49q24 0 73 11q37 10 76 30l-24 -170
q-35 -21 -74 -30q-35 -9 -86 -9q-182 0 -260 93q-76 91 -49 282l75 514h-180l25 168h180l49 334l193 33l-54 -367h305z" />
    <glyph glyph-name="zero.tab" unicode="&#xff10;" horiz-adv-x="1228" 
d="M586 -25l-4 -2q-248 0 -383 156t-101 401l64 447q34 230 178 356q145 127 358 127q255 0 389 -155q136 -157 101 -406l-62 -440q-35 -234 -178 -359t-362 -125zM688 1276h-8q-133 0 -221 -82q-90 -84 -111 -233l-61 -441q-21 -160 59 -262q79 -98 240 -98q137 0 227 84
t111 233l61 438q21 166 -57 263q-79 98 -240 98z" />
    <glyph glyph-name="one.tab" unicode="&#xff11;" horiz-adv-x="1228" 
d="M1004 0h-873l23 178h340l153 1082h-309l70 180h458l-176 -1262h338z" />
    <glyph glyph-name="two.tab" unicode="&#xff12;" horiz-adv-x="1228" 
d="M1171 1073h-2q0 -139 -67 -252q-67 -112 -256 -264l-477 -377h714l-26 -180h-1012l23 174l671 535q118 93 172 178q52 82 52 172q0 97 -72 160q-70 61 -189 61q-125 0 -221 -84q-93 -81 -114 -215h-203q27 214 178 350q150 135 369 135q203 0 331 -110q129 -111 129 -283
z" />
    <glyph glyph-name="three.tab" unicode="&#xff13;" horiz-adv-x="1228" 
d="M586 -25h-2q-218 0 -357 121q-138 120 -141 314h197q3 -107 86 -181q82 -73 213 -73t221 84q88 82 88 202q0 106 -72 172t-190 66h-152l21 145h155q127 0 203 70q80 71 80 174q0 94 -70 152q-71 59 -184 59q-109 0 -184 -63q-80 -67 -97 -166h-198q24 178 162 292
q138 117 331 117q202 0 320 -100q121 -103 121 -254q0 -124 -68 -213t-192 -135q103 -45 157 -131q56 -86 56 -201q0 -187 -142 -320q-137 -131 -362 -131z" />
    <glyph glyph-name="four.tab" unicode="&#xff14;" horiz-adv-x="1228" 
d="M61 479l719 961h232l-717 -953h512l47 324l199 45l-54 -369h154l-25 -176h-155l-41 -311h-193l43 311h-743z" />
    <glyph glyph-name="five.tab" unicode="&#xff15;" horiz-adv-x="1228" 
d="M387 1440l758 -6l-23 -181h-604l-90 -381q77 28 109 35q60 13 108 13q205 0 328 -117t123 -305q0 -223 -152 -375q-150 -150 -375 -150q-206 0 -344 129q-137 128 -143 326h201q6 -114 90 -192q82 -76 202 -76q144 0 236 92t92 233q0 121 -80 195t-215 74q-76 0 -135 -27
q-59 -26 -106 -76l-156 31z" />
    <glyph glyph-name="six.tab" unicode="&#xff16;" horiz-adv-x="1228" 
d="M594 -25l-6 2q-204 0 -344 134t-140 325q0 110 56 240q55 127 151 237l457 525h238l-459 -512q35 9 61 12q36 4 66 4q197 0 330 -127t133 -317q0 -215 -160 -369t-383 -154zM936 494l2 2q0 119 -84 200q-83 80 -215 80q-148 0 -242 -94q-98 -94 -98 -233q0 -126 86 -209
q90 -84 213 -84q142 0 240 98t98 240z" />
    <glyph glyph-name="seven.tab" unicode="&#xff17;" horiz-adv-x="1228" 
d="M965 1260h-732l25 180h963l-21 -156l-786 -1284h-228z" />
    <glyph glyph-name="eight.tab" unicode="&#xff18;" horiz-adv-x="1228" 
d="M391 797l-4 -6q-63 48 -100 118t-37 154q0 168 127 283q126 114 323 114q196 0 314 -100q121 -103 121 -258q0 -111 -62 -203q-64 -92 -166 -143q91 -57 140 -142t49 -186q0 -190 -144 -322q-143 -131 -364 -131q-218 0 -357 115q-137 113 -137 293q0 138 80 250
q80 111 217 164zM426 1053l-6 -4q0 -95 74 -154q69 -57 184 -57q119 0 192 67q74 68 74 170q0 96 -67 154q-71 59 -185 59q-119 0 -192 -67q-74 -68 -74 -168zM897 424v-2q0 112 -82 182q-84 72 -221 72q-139 0 -227 -82t-88 -203q0 -113 86 -184q82 -70 217 -70
q137 0 227 84q88 82 88 203z" />
    <glyph glyph-name="nine.tab" unicode="&#xff19;" horiz-adv-x="1228" 
d="M690 1464v-2q205 0 344 -133q140 -134 140 -325q0 -110 -56 -240q-55 -129 -151 -238l-457 -524h-238l459 512q-35 -9 -61 -12q-36 -4 -66 -4q-195 0 -328 127q-131 125 -131 317q0 215 160 369q159 153 385 153zM342 946l-4 -4q0 -120 84 -201q82 -79 215 -79
q138 0 242 96q98 94 98 233q0 126 -86 209q-90 84 -211 84q-142 0 -240 -98t-98 -240z" />
    <glyph glyph-name="Lgeminada" horiz-adv-x="2123" 
d="M963 0h-850l202 1440h197l-178 -1260h653zM989 735l-2 -6q0 -57 -41 -98q-39 -39 -102 -39q-58 0 -99 41q-38 38 -38 98q0 65 38 103q40 40 101 40q64 0 102 -38q41 -41 41 -101zM2021 -6h-850l203 1440h197l-178 -1260h653z" />
    <glyph glyph-name="lgeminada" horiz-adv-x="1269" 
d="M309 1518h189l-213 -1518h-189zM809 735l-2 -6q0 -57 -41 -98q-39 -39 -102 -39q-58 0 -99 41q-39 39 -39 98q0 64 39 103q40 40 101 40q64 0 102 -38q41 -41 41 -101zM1053 1511h188l-213 -1517h-188z" />
    <glyph glyph-name="caron.salt" horiz-adv-x="403" 
d="M315 1343l-133 -264h-121l121 232q-36 9 -59 41q-23 38 -23 67q0 51 35 86t86 35t86 -35t35 -84q0 -14 -6 -32q-7 -23 -21 -46z" />
    <glyph glyph-name="commaaccent.salt" horiz-adv-x="405" 
d="M76 1378l121 213h110l-106 -184q38 -12 53 -39q18 -27 18 -61q0 -48 -30 -78q-31 -31 -78 -31q-49 0 -80 31t-31 78q0 16 6 34z" />
    <glyph glyph-name="acute.case" horiz-adv-x="616" 
d="M272 1567h-186l209 297h186z" />
    <glyph glyph-name="grave.case" horiz-adv-x="616" 
d="M254 1567l-125 297h178l121 -297h-174z" />
    <glyph glyph-name="hungarumlaut.case" horiz-adv-x="681" 
d="M270 1864h179l-191 -297h-176zM528 1864h179l-191 -297h-176z" />
    <glyph glyph-name="circumflex.case" horiz-adv-x="706" 
d="M47 1567l279 297h168l198 -297h-162l-129 190l-180 -190h-174z" />
    <glyph glyph-name="caron.case" horiz-adv-x="706" 
d="M772 1864l-278 -297h-168l-199 297h162l129 -191l180 191h174z" />
    <glyph glyph-name="breve.case" horiz-adv-x="757" 
d="M410 1548l4 -2q-131 0 -215 84q-82 82 -82 209h139q0 -76 41 -123t115 -47q73 0 114 47t41 123h140q0 -127 -82 -209t-215 -82z" />
    <glyph glyph-name="tilde.case" horiz-adv-x="794" 
d="M471 1751l-4 -2l43 -37q8 -8 25 -8q27 0 40 25q13 24 23 88h127q-9 -126 -55 -187t-135 -61q-46 0 -74 14q-32 14 -80 62q-22 29 -43 41q-17 10 -35 10q-36 0 -55 -29q-19 -34 -27 -92h-127q9 125 62 190q52 64 151 64q32 0 78 -17q37 -15 86 -61z" />
    <glyph glyph-name="macron.case" horiz-adv-x="770" 
d="M643 1622h-551l19 129h551z" />
    <glyph glyph-name="dieresis.case" horiz-adv-x="677" 
d="M317 1700h-2q0 -48 -30 -78q-31 -31 -76 -31t-76 31t-31 78t31 78q30 30 78 30q46 0 76 -30t30 -78zM614 1700l-4 -4q0 -46 -30 -76q-31 -31 -76 -31t-76 31t-31 78t31 78q30 30 78 30t78 -30t30 -76z" />
    <glyph glyph-name="dotaccent.case" horiz-adv-x="567" 
d="M342 1708q0 -50 -37 -84q-41 -35 -86 -35q-49 0 -84 35t-35 84q0 45 35 86q34 37 84 37q49 0 86 -37t37 -86z" />
    <glyph glyph-name="ring.case" horiz-adv-x="675" 
d="M504 1749l-2 -4q0 -82 -62 -141q-58 -58 -147 -58q-88 0 -148 60q-59 59 -59 141q0 83 61 141q66 60 148 60q89 0 147 -58q62 -59 62 -141zM203 1745l-2 -4q0 -42 26 -68t68 -26q39 0 67 28q29 29 29 68q0 41 -26 67q-29 29 -68 29q-41 0 -68 -27q-26 -26 -26 -67z" />
    <glyph glyph-name="G.alt" horiz-adv-x="1634" 
d="M1333 569l-526 11l20 153h723l-2 -28q-21 -323 -227 -523q-204 -198 -516 -198q-300 0 -500 194q-196 193 -196 486q0 156 59 307q60 147 170 260q111 114 256 176q143 61 305 61q247 0 436 -139q185 -139 240 -366h-215q-53 148 -178 233q-127 86 -289 86
q-240 0 -408 -180t-168 -436q0 -217 140 -363q137 -143 356 -143q202 0 336 104t184 305z" />
    <glyph glyph-name="Gcircumflex.alt" horiz-adv-x="1634" 
d="M600 1567l279 297h168l198 -297h-162l-129 190l-180 -190h-174zM1333 569l-526 11l20 153h723l-2 -28q-21 -323 -227 -523q-204 -198 -516 -198q-300 0 -500 194q-196 193 -196 486q0 156 59 307q60 147 170 260q111 114 256 176q143 61 305 61q247 0 436 -139
q185 -139 240 -366h-215q-53 148 -178 233q-127 86 -289 86q-240 0 -408 -180t-168 -436q0 -217 140 -363q137 -143 356 -143q202 0 336 104t184 305z" />
    <glyph glyph-name="Gbreve.alt" horiz-adv-x="1634" 
d="M1333 569l-526 11l20 153h723l-2 -28q-21 -323 -227 -523q-204 -198 -516 -198q-300 0 -500 194q-196 193 -196 486q0 156 59 307q60 147 170 260q111 114 256 176q143 61 305 61q247 0 436 -139q185 -139 240 -366h-215q-53 148 -178 233q-127 86 -289 86
q-240 0 -408 -180t-168 -436q0 -217 140 -363q137 -143 356 -143q202 0 336 104t184 305zM940 1559l4 -3q-131 0 -215 84q-82 82 -82 209h139q0 -76 41 -123t115 -47t115 47t41 123h139q0 -127 -82 -209q-81 -81 -215 -81z" />
    <glyph glyph-name="Gdotaccent.alt" horiz-adv-x="1634" 
d="M1053 1708q0 -50 -37 -84q-41 -35 -86 -35q-49 0 -84 35t-35 84q0 45 35 86q34 37 84 37q49 0 86 -37t37 -86zM1333 569l-526 11l20 153h723l-2 -28q-21 -323 -227 -523q-204 -198 -516 -198q-300 0 -500 194q-196 193 -196 486q0 156 59 307q60 147 170 260
q111 114 256 176q143 61 305 61q247 0 436 -139q185 -139 240 -366h-215q-53 148 -178 233q-127 86 -289 86q-240 0 -408 -180t-168 -436q0 -217 140 -363q137 -143 356 -143q202 0 336 104t184 305z" />
    <glyph glyph-name="uni0122.alt" horiz-adv-x="1634" 
d="M868 -291l-90 -237h-106l78 180q-38 9 -62 39t-24 67q0 48 30 78q31 31 78 31q49 0 80 -31t31 -78q0 -14 -2 -18zM1339 567l-526 11l21 153h722l-2 -29q-21 -322 -227 -522q-204 -198 -516 -198q-300 0 -500 194q-196 193 -196 486q0 156 59 307q60 147 170 260
q111 114 256 176q143 61 305 61q247 0 436 -139q185 -139 240 -366h-215q-53 148 -178 233q-127 86 -289 86q-239 0 -407 -180t-168 -436q0 -218 139 -363q137 -143 356 -143q202 0 336 104t184 305z" />
    <glyph glyph-name="a.alt" 
d="M1264 1034l-150 -1038h-178l22 154q-82 -88 -178 -132q-96 -45 -215 -45q-211 0 -348 140q-135 138 -135 348q0 258 162 426q163 172 401 172q137 0 238 -58q104 -58 166 -161l26 194h189zM274 477v-4q0 -143 97 -240q94 -94 239 -94q164 0 279 115q112 112 112 283
q0 141 -96 245q-95 99 -246 99q-163 0 -274 -117t-111 -287z" />
    <glyph glyph-name="agrave.alt" 
d="M1264 1034l-150 -1038h-178l22 154q-82 -88 -178 -132q-96 -45 -215 -45q-211 0 -348 140q-135 138 -135 348q0 258 162 426q163 172 401 172q137 0 238 -58q104 -58 166 -161l26 194h189zM274 477v-4q0 -143 97 -240q94 -94 239 -94q164 0 279 115q112 112 112 283
q0 141 -96 245q-95 99 -246 99q-163 0 -274 -117t-111 -287zM621 1163l-125 297h178l121 -297h-174z" />
    <glyph glyph-name="aacute.alt" 
d="M834 1171h-187l209 297h186zM1264 1034l-150 -1038h-178l22 154q-82 -88 -178 -132q-96 -45 -215 -45q-211 0 -348 140q-135 138 -135 348q0 258 162 426q163 172 401 172q137 0 238 -58q104 -58 166 -161l26 194h189zM274 477v-4q0 -143 97 -240q94 -94 239 -94
q164 0 279 115q112 112 112 283q0 141 -96 245q-95 99 -246 99q-163 0 -274 -117t-111 -287z" />
    <glyph glyph-name="acircumflex.alt" 
d="M416 1171l278 297h168l199 -297h-162l-129 191l-180 -191h-174zM1264 1034l-150 -1038h-178l22 154q-82 -88 -178 -132q-96 -45 -215 -45q-211 0 -348 140q-135 138 -135 348q0 258 162 426q163 172 401 172q137 0 238 -58q104 -58 166 -161l26 194h189zM274 477v-4
q0 -143 97 -240q94 -94 239 -94q164 0 279 115q112 112 112 283q0 141 -96 245q-95 99 -246 99q-163 0 -274 -117t-111 -287z" />
    <glyph glyph-name="atilde.alt" 
d="M1264 1034l-150 -1038h-178l22 154q-82 -88 -178 -132q-96 -45 -215 -45q-211 0 -348 140q-135 138 -135 348q0 258 162 426q163 172 401 172q137 0 238 -58q104 -58 166 -161l26 194h189zM274 477v-4q0 -143 97 -240q94 -94 239 -94q164 0 279 115q112 112 112 283
q0 141 -96 245q-95 99 -246 99q-163 0 -274 -117t-111 -287zM817 1356l-4 -2l43 -37q8 -8 25 -8q29 0 41 24q12 21 22 88h127q-9 -125 -55 -186t-135 -61q-46 0 -74 14q-34 15 -80 61q-22 29 -43 41q-17 10 -35 10q-36 0 -55 -28q-19 -34 -27 -92h-127q9 125 62 190
q52 64 151 64q32 0 78 -17q37 -15 86 -61z" />
    <glyph glyph-name="adieresis.alt" 
d="M715 1309h-2q0 -47 -31 -78t-76 -31t-76 31q-30 30 -30 78q0 47 30 77q31 31 78 31q45 0 76 -31t31 -77zM1012 1309l-4 -4q0 -45 -31 -76t-76 -31t-76 31q-30 30 -30 78q0 47 30 77q31 31 78 31t78 -31t31 -75zM1257 1030l-149 -1038h-178l22 153q-80 -86 -178 -131
q-96 -45 -215 -45q-211 0 -348 140q-135 138 -135 348q0 258 162 426q163 172 401 172q137 0 238 -58q102 -57 165 -161l27 194h188zM268 473v-4q0 -143 97 -240q94 -94 239 -94q164 0 279 115q112 112 112 282q0 142 -96 246q-95 99 -246 99q-163 0 -274 -117t-111 -287z
" />
    <glyph glyph-name="aring.alt" 
d="M967 1356l-2 -4q0 -83 -62 -142q-57 -57 -147 -57q-89 0 -148 59t-59 142t61 141q65 59 148 59q90 0 147 -57q62 -59 62 -141zM666 1352l-2 -4q0 -42 26 -68q27 -27 68 -27q38 0 67 29t29 68q0 40 -27 67q-29 29 -67 29q-41 0 -68 -27q-26 -26 -26 -67zM1260 1026
l-150 -1038h-178l22 153q-80 -86 -178 -131q-96 -45 -215 -45q-212 0 -348 139q-135 138 -135 349q0 258 162 426q163 172 401 172q137 0 238 -58q101 -56 165 -162l27 195h189zM270 469v-4q0 -143 97 -240q94 -94 239 -94q164 0 279 115q112 112 112 282q0 142 -96 246
q-94 98 -246 98q-164 0 -274 -116q-111 -117 -111 -287z" />
    <glyph glyph-name="amacron.alt" 
d="M1264 1034l-150 -1038h-178l22 154q-82 -88 -178 -132q-96 -45 -215 -45q-211 0 -348 140q-135 138 -135 348q0 258 162 426q163 172 401 172q137 0 238 -58q104 -58 166 -161l26 194h189zM274 477v-4q0 -143 97 -240q94 -94 239 -94q164 0 279 115q112 112 112 283
q0 141 -96 245q-95 99 -246 99q-163 0 -274 -117t-111 -287zM1018 1223h-551l18 129h551z" />
    <glyph glyph-name="abreve.alt" 
d="M1264 1034l-150 -1038h-178l22 154q-82 -88 -178 -132q-96 -45 -215 -45q-211 0 -348 140q-135 138 -135 348q0 258 162 426q163 172 401 172q137 0 238 -58q104 -58 166 -161l26 194h189zM274 477v-4q0 -143 97 -240q94 -94 239 -94q164 0 279 115q112 112 112 283
q0 141 -96 245q-95 99 -246 99q-163 0 -274 -117t-111 -287zM754 1147l4 -2q-131 0 -215 84q-82 82 -82 209h139q0 -76 41 -123t115 -47q73 0 114 47t41 123h140q0 -127 -82 -209t-215 -82z" />
    <glyph glyph-name="aogonek.alt" 
d="M1264 1034l-150 -1044h-14q-123 -117 -178 -191q-52 -70 -52 -123q0 -37 23 -57q21 -18 68 -18q23 0 47 6l49 16l-19 -127q-18 -13 -51 -24q-27 -9 -63 -9q-94 0 -156 50q-61 49 -61 129q0 85 45 153q45 74 184 201l22 154q-82 -88 -178 -132q-96 -45 -215 -45
q-211 0 -348 140q-135 138 -135 348q0 258 162 426q163 172 401 172q137 0 238 -58q104 -58 166 -161l26 194h189zM274 471v-4q0 -143 97 -240q94 -94 239 -94q164 0 279 115q112 112 112 282q0 142 -96 246q-94 98 -246 98q-164 0 -274 -116q-111 -117 -111 -287z" />
    </font>
</defs>
</svg>
