<?xml version="1.0" standalone="no"?>
<!DOCTYPE svg PUBLIC "-//W3C//DTD SVG 1.1//EN" "http://www.w3.org/Graphics/SVG/1.1/DTD/svg11.dtd" >
<svg xmlns="http://www.w3.org/2000/svg" xmlns:xlink="http://www.w3.org/1999/xlink" version="1.1">
<metadata>
Created by FontForge 20170731 at Thu Jan  6 10:25:18 2022
 By Aleksey,,,
Copyright (c) 2018 by Eduardo Manso. All rights reserved.
</metadata>
<defs>
<font id="SteradianMediumItalic" horiz-adv-x="1228" >
  <font-face 
    font-family="Steradian Medium Italic"
    font-weight="500"
    font-style="italic"
    font-stretch="normal"
    units-per-em="2048"
    panose-1="0 0 0 0 0 0 0 0 0 0"
    ascent="1638"
    descent="-410"
    x-height="1038"
    cap-height="1440"
    bbox="-557 -573 2824 1978"
    underline-thickness="73"
    underline-position="-400"
    slope="-8"
    unicode-range="U+000D-FF19"
  />
<missing-glyph horiz-adv-x="1779" 
d="M1583 721l-2 -2q0 -299 -211 -510t-506 -211q-297 0 -510 213q-211 211 -211 510q0 297 213 510q211 211 510 211q295 0 506 -211t211 -510zM193 719h-3q0 -276 197 -473t473 -197t473 197t197 473t-197 473t-471 197q-276 0 -473 -197q-196 -196 -196 -473zM1217 432
h-146l-215 213l-215 -213h-147l286 287l-276 278h147l205 -202l205 204h149l-280 -280z" />
    <glyph glyph-name=".notdef" horiz-adv-x="1779" 
d="M1583 721l-2 -2q0 -299 -211 -510t-506 -211q-297 0 -510 213q-211 211 -211 510q0 297 213 510q211 211 510 211q295 0 506 -211t211 -510zM193 719h-3q0 -276 197 -473t473 -197t473 197t197 473t-197 473t-471 197q-276 0 -473 -197q-196 -196 -196 -473zM1217 432
h-146l-215 213l-215 -213h-147l286 287l-276 278h147l205 -202l205 204h149l-280 -280z" />
    <glyph glyph-name=".null" horiz-adv-x="0" 
 />
    <glyph glyph-name="nonmarkingreturn" horiz-adv-x="682" 
 />
    <glyph glyph-name="NULL" horiz-adv-x="0" 
 />
    <glyph glyph-name="NULL" horiz-adv-x="0" 
 />
    <glyph glyph-name="CR" unicode="&#xd;" horiz-adv-x="483" 
 />
    <glyph glyph-name="space" unicode=" " horiz-adv-x="483" 
 />
    <glyph glyph-name="exclam" unicode="!" horiz-adv-x="585" 
d="M369 467h-166l12 475l72 498h270l-72 -498zM414 145l4 -2q0 -72 -51 -120q-53 -50 -129 -50q-75 0 -125 50t-50 120q0 77 50 127q49 49 125 49q78 0 127 -49t49 -125z" />
    <glyph glyph-name="quotedbl" unicode="&#x22;" horiz-adv-x="825" 
d="M358 887h-155l16 499l8 54h262l-8 -54zM717 887h-156l17 499l8 54h262l-8 -54z" />
    <glyph glyph-name="numbersign" unicode="#" horiz-adv-x="1378" 
d="M1212 602l-75 -203h-213l-121 -309h-221l120 309h-225l-121 -309h-221l121 309h-209l76 203h213l92 234h-211l78 202h211l121 310h221l-121 -310h225l121 310h221l-120 -310h210l-77 -202h-211l-92 -234h208zM647 836l-90 -234h225l92 234h-227z" />
    <glyph glyph-name="dollar" unicode="$" horiz-adv-x="1161" 
d="M598 -233l-268 -62l39 297q-161 53 -242 174q-83 124 -74 297h275q-6 -125 61 -192q68 -68 193 -68q97 0 155 55t58 150q0 38 -13 67t-43 50q-25 15 -32 18l-91 43l-143 63q-159 70 -227 160q-68 89 -68 215q0 174 109 289q108 114 288 135l31 203l264 59l-41 -284
q146 -47 222 -160t73 -277h-272q3 112 -49 170q-54 60 -158 60q-88 0 -141 -47t-53 -129q0 -57 30 -95q27 -34 127 -75l131 -56q194 -83 265 -172t71 -221q0 -200 -123 -323q-124 -124 -325 -136z" />
    <glyph glyph-name="percent" unicode="%" horiz-adv-x="1634" 
d="M852 1112v-2q0 -144 -98 -242t-252 -98q-152 0 -250 98t-98 244t98 240q104 96 250 96q148 0 252 -96q98 -94 98 -240zM1368 1438h221l-1267 -1440h-222zM338 1108l-4 -2q0 -70 47 -117q45 -45 117 -45q69 0 116 47q48 48 48 117q0 73 -46 119q-46 49 -116 49
q-71 0 -117 -49q-45 -45 -45 -119zM1534 326v4q0 -144 -98 -242t-250 -98q-148 0 -252 96q-98 94 -98 244q0 145 98 239q105 97 252 97q151 0 250 -99q98 -98 98 -241zM1022 328l-2 -2q0 -70 47 -117q45 -45 117 -45q69 0 116 47q46 46 46 117q0 72 -46 118q-47 50 -116 50
q-70 0 -117 -50q-45 -45 -45 -118z" />
    <glyph glyph-name="ampersand" unicode="&#x26;" horiz-adv-x="1425" 
d="M940 514l211 285h291l-365 -482l234 -321h-297l-94 131q-84 -78 -187 -119q-95 -39 -221 -39q-195 0 -328 109q-129 108 -129 276q0 160 99 277q100 118 274 176q-56 86 -80 154q-24 67 -24 133q0 155 122 262q126 108 295 108q157 0 258 -88q103 -89 103 -217
q0 -125 -90 -235q-90 -104 -252 -162zM727 1249l-2 -2q-67 0 -113 -49q-45 -45 -45 -113q0 -34 19 -77q19 -42 61 -99q117 48 168 99q49 49 49 114q0 58 -37 92q-41 35 -100 35zM315 379l-2 -2q0 -84 64 -139q65 -56 160 -56q65 0 129 31q59 29 118 94l-243 336
q-115 -47 -170 -111q-56 -65 -56 -153z" />
    <glyph glyph-name="quotesingle" unicode="'" horiz-adv-x="464" 
d="M358 887h-155l16 499l8 54h262l-8 -54z" />
    <glyph glyph-name="parenleft" unicode="(" horiz-adv-x="657" 
d="M485 -287h-254q-67 142 -106 326q-37 170 -37 360q0 346 107 666q110 328 307 592h272q-211 -295 -319 -608q-107 -308 -107 -643q0 -181 35 -359q37 -187 102 -334z" />
    <glyph glyph-name="parenright" unicode=")" horiz-adv-x="659" 
d="M217 1659l254 -4q68 -146 107 -326q36 -166 36 -360q0 -349 -106 -666q-110 -328 -307 -592h-273q213 298 320 608q106 305 106 644q0 176 -35 360q-37 185 -102 336z" />
    <glyph glyph-name="asterisk" unicode="*" horiz-adv-x="946" 
d="M365 696l-172 129l190 195l-233 67l106 207l217 -102l14 248h232l-51 -242l239 96l45 -209l-256 -67l135 -195l-198 -127l-101 228z" />
    <glyph glyph-name="plus" unicode="+" horiz-adv-x="1167" 
d="M713 248h-205v366h-367v205h367v367h205v-367h366v-205h-366v-366z" />
    <glyph glyph-name="comma" unicode="," horiz-adv-x="544" 
d="M154 -336l-193 -6l184 324q-44 20 -73 63q-27 41 -27 96q0 78 49 127t127 49q77 0 129 -49q51 -48 51 -123q0 -30 -8 -49q-10 -31 -24 -53z" />
    <glyph glyph-name="hyphen" unicode="-" horiz-adv-x="772" 
d="M137 653h500v-231h-500v231z" />
    <glyph glyph-name="period" unicode="." horiz-adv-x="534" 
d="M395 145l4 -2q0 -72 -51 -120q-53 -50 -129 -50q-75 0 -125 50q-49 49 -49 120q0 78 49 127t125 49q78 0 127 -49t49 -125z" />
    <glyph glyph-name="slash" unicode="/" horiz-adv-x="880" 
d="M707 1659h272l-760 -1946h-272z" />
    <glyph glyph-name="zero" unicode="0" horiz-adv-x="1300" 
d="M623 -27l-5 -2q-253 0 -395 160q-141 156 -106 408l61 436q34 236 180 364q147 129 371 129q260 0 401 -159q142 -157 107 -414l-59 -428q-34 -236 -181 -365t-374 -129zM717 1210h-2q-116 0 -185 -69q-75 -69 -90 -191l-59 -428q-18 -136 49 -215q68 -80 201 -80
q117 0 188 68q73 73 90 192l60 426q18 138 -49 217q-68 80 -203 80z" />
    <glyph glyph-name="one" unicode="1" horiz-adv-x="747" 
d="M502 0h-269l170 1194h-286l94 246h491z" />
    <glyph glyph-name="two" unicode="2" horiz-adv-x="1241" 
d="M1188 1063l-4 -6q0 -137 -68 -252q-73 -118 -270 -275l-371 -288h635l-35 -246h-1038l33 237l645 504q95 73 141 148q43 70 43 147q0 80 -55 129t-150 49q-105 0 -178 -67t-94 -176h-279q29 221 187 360q157 139 383 139q212 0 342 -112q133 -115 133 -291z" />
    <glyph glyph-name="three" unicode="3" horiz-adv-x="1208" 
d="M580 -27l8 -10q-230 0 -371 123q-142 121 -145 328h270q3 -90 72 -144q67 -55 174 -55t178 68q72 69 72 168q0 88 -62 141q-65 53 -166 53h-151l28 197h156q102 0 166 55q65 56 65 145q0 77 -55 123q-59 47 -149 47q-87 0 -150 -51q-64 -52 -82 -135h-270q27 187 172 311
q144 123 350 123q210 0 332 -104q123 -105 123 -264q0 -120 -62 -209t-178 -138q95 -47 144 -129t49 -190q0 -190 -144 -322q-143 -131 -374 -131z" />
    <glyph glyph-name="four" unicode="4" horiz-adv-x="1234" 
d="M47 504l674 936h315l-671 -928h407l41 287l272 61l-51 -348h148l-35 -240h-148l-36 -272h-263l37 272h-723z" />
    <glyph glyph-name="five" unicode="5" horiz-adv-x="1187" 
d="M340 1440l799 -8l-33 -246h-582l-69 -287q68 19 92 23q47 6 90 6q212 0 338 -117q125 -116 125 -307q0 -232 -156 -385q-157 -154 -387 -154q-214 0 -358 129q-145 130 -154 328h274q9 -91 78 -148q63 -57 164 -57q122 0 195 76t73 192q0 99 -67 160q-68 62 -180 62
q-68 0 -117 -21q-53 -21 -90 -61l-213 41z" />
    <glyph glyph-name="six" unicode="6" horiz-adv-x="1196" 
d="M578 -27l-3 -2q-212 0 -356 135q-145 136 -145 336q0 107 53 240q55 131 145 240l439 518h323l-432 -494q28 4 29 4h37q205 0 338 -127t133 -319q0 -219 -166 -375q-163 -156 -395 -156zM868 494l-2 -7q0 104 -69 170q-71 68 -179 68q-118 0 -198 -80t-80 -196
q0 -104 72 -173q70 -67 176 -67q114 0 198 84q82 82 82 201z" />
    <glyph glyph-name="seven" unicode="7" horiz-adv-x="1089" 
d="M819 1194h-680l35 246h993l-28 -211l-754 -1229h-309z" />
    <glyph glyph-name="eight" unicode="8" horiz-adv-x="1216" 
d="M344 801l2 8q-56 50 -84 117q-29 76 -29 143q0 172 132 289t331 117q200 0 326 -105q125 -104 125 -264q0 -106 -53 -195t-146 -147q80 -58 123 -141q43 -82 43 -179q0 -197 -149 -331q-151 -136 -377 -136q-225 0 -369 117q-143 116 -143 301q0 131 71 240
q70 107 197 166zM471 1053l-2 -4q0 -76 61 -125q62 -50 152 -50q96 0 154 58q59 59 59 141q0 76 -55 125t-150 49q-97 0 -158 -55t-61 -139zM850 451l-2 -7q0 93 -68 152q-71 59 -182 59q-113 0 -186 -67q-74 -68 -74 -168q0 -94 72 -154q69 -57 178 -57q118 0 188 70
q74 71 74 172z" />
    <glyph glyph-name="nine" unicode="9" horiz-adv-x="1196" 
d="M672 1466v-2q212 0 356 -135q146 -137 146 -334q0 -103 -54 -239q-55 -131 -145 -240l-438 -518h-324l432 494q-25 -5 -27 -5h-36q-205 0 -338 127t-133 320q0 220 165 375q171 157 396 157zM379 942h-2q0 -102 69 -168q70 -67 179 -67q119 0 198 79q80 80 80 197
q0 106 -69 172q-71 68 -175 68q-116 0 -198 -82t-82 -199z" />
    <glyph glyph-name="colon" unicode=":" horiz-adv-x="591" 
d="M416 145l4 -2q0 -72 -51 -120q-53 -50 -129 -50q-75 0 -125 50q-49 49 -49 120q0 78 49 127t125 49q78 0 127 -49t49 -125zM528 887l4 -2q0 -73 -51 -121q-52 -49 -129 -49q-76 0 -125 49t-49 121q0 78 49 127t125 49q78 0 127 -49t49 -125z" />
    <glyph glyph-name="semicolon" unicode=";" horiz-adv-x="598" 
d="M182 -336l-192 -6l184 324q-46 21 -74 63q-26 39 -26 96q0 78 49 127t127 49q77 0 129 -49q51 -48 51 -123q0 -30 -8 -49q-9 -28 -25 -53zM520 883l4 -2q0 -73 -51 -121q-52 -49 -129 -49q-76 0 -125 49t-49 121q0 78 49 127t125 49q78 0 127 -49t49 -125z" />
    <glyph glyph-name="less" unicode="&#x3c;" horiz-adv-x="1167" 
d="M143 592v207l858 415v-247l-567 -271l567 -274v-246z" />
    <glyph glyph-name="equal" unicode="=" horiz-adv-x="1167" 
d="M137 836v204h938v-204h-938zM137 393v205h938v-205h-938z" />
    <glyph glyph-name="greater" unicode="&#x3e;" horiz-adv-x="1167" 
d="M1071 799v-207l-858 -416v248l567 270l-567 275v245z" />
    <glyph glyph-name="question" unicode="?" horiz-adv-x="1142" 
d="M412 592l272 184q79 52 121 125q43 73 43 154q0 83 -55 129q-59 47 -154 47q-94 0 -166 -60q-68 -59 -86 -165h-264q40 211 184 337q143 125 357 125q207 0 331 -106q129 -108 129 -277q0 -141 -69 -258q-69 -124 -193 -209l-217 -151h-248zM666 145l4 -2q0 -71 -52 -120
q-53 -50 -129 -50q-74 0 -124 50t-50 120q0 77 50 127q49 49 124 49q78 0 127 -49q50 -50 50 -125z" />
    <glyph glyph-name="at" unicode="@" horiz-adv-x="1855" 
d="M805 162l-10 -15q-135 0 -222 93q-86 92 -86 239q0 180 115 307q113 125 277 125q83 0 147 -30q57 -25 100 -90l25 104h221l-102 -430q-21 -96 6 -146q27 -49 104 -49q94 0 156 99q61 98 61 256q0 255 -186 417q-188 164 -473 164q-287 0 -477 -184q-191 -185 -191 -479
q0 -291 191 -467q186 -174 479 -174q90 0 160 12q53 10 123 35v-168q-58 -21 -133 -33q-74 -12 -150 -12q-177 0 -326 57q-159 59 -274 166q-122 110 -186 258q-64 146 -64 328q0 185 64 334q63 153 184 268q116 110 276 170q160 59 330 59q353 0 598 -213
q242 -211 242 -534q0 -236 -117 -377t-319 -141q-105 0 -179 45q-77 47 -98 129q-52 -61 -119 -92q-70 -31 -147 -31zM721 494v-7q0 -85 37 -131q36 -45 104 -45q88 0 148 78q57 75 57 189q0 67 -43 110t-113 43q-81 0 -135 -69q-55 -70 -55 -168z" />
    <glyph glyph-name="A" unicode="A" horiz-adv-x="1415" 
d="M690 1440h287l330 -1440h-281l-61 301h-580l-147 -301h-283zM918 526l-125 600l-295 -600h420z" />
    <glyph glyph-name="B" unicode="B" horiz-adv-x="1382" 
d="M750 0h-662l201 1440h569q190 0 313 -99t123 -251q0 -124 -65 -213q-65 -90 -191 -142q115 -44 179 -129q63 -81 63 -192q0 -187 -150 -301q-149 -113 -380 -113zM1010 1047l2 -3q0 81 -58 127q-60 48 -159 48h-267l-53 -383h291q113 0 176 57q68 59 68 154zM1004 442h2
q0 80 -64 129q-65 50 -166 50h-332l-55 -404h352q120 0 191 62q72 63 72 163z" />
    <glyph glyph-name="C" unicode="C" horiz-adv-x="1650" 
d="M1309 584l286 -4q-71 -277 -282 -443t-492 -166q-312 0 -512 197q-198 195 -198 491q0 159 59 310q60 147 170 260q115 115 258 176q146 61 309 61q286 0 477 -161q194 -164 228 -424h-287q-38 148 -154 239q-118 92 -276 92q-210 0 -358 -157t-148 -381q0 -194 123 -320
q122 -125 319 -125q160 0 289 97q128 96 189 258z" />
    <glyph glyph-name="D" unicode="D" horiz-adv-x="1562" 
d="M647 0l-555 -4l201 1440h528q289 0 484 -183q194 -182 194 -460q0 -365 -235 -578q-238 -215 -617 -215zM528 1182l-133 -936h275q244 0 397 141q154 142 154 381q0 187 -123 301q-119 113 -322 113h-248z" />
    <glyph glyph-name="E" unicode="E" horiz-adv-x="1191" 
d="M1012 0h-918l203 1440h907l-37 -246h-635l-51 -346h590l-33 -234h-587l-54 -368h647z" />
    <glyph glyph-name="F" unicode="F" horiz-adv-x="1150" 
d="M362 0h-268l203 1440h907l-37 -246h-635l-51 -367h588l-35 -239h-588z" />
    <glyph glyph-name="G" unicode="G" horiz-adv-x="1654" 
d="M1569 743l-101 -741h-225l27 191q-81 -105 -209 -162q-124 -56 -270 -56q-304 0 -494 193q-191 194 -191 487q0 341 228 578t563 237q266 0 455 -145q187 -144 231 -379h-293q-47 126 -149 197q-109 71 -248 71q-211 0 -358 -159q-148 -160 -148 -385q0 -205 123 -328
t336 -123q154 0 272 80q116 79 172 231h-461l29 213h711z" />
    <glyph glyph-name="H" unicode="H" horiz-adv-x="1460" 
d="M362 0h-268l203 1440h268l-80 -578h582l80 578h268l-203 -1440h-268l86 608h-581z" />
    <glyph glyph-name="I" unicode="I" horiz-adv-x="610" 
d="M362 0h-268l203 1440h268z" />
    <glyph glyph-name="J" unicode="J" horiz-adv-x="1187" 
d="M887 1440l266 -6l-141 -1002q-30 -211 -172 -338q-137 -125 -353 -125t-352 142q-134 140 -119 360h267q-3 -113 55 -180q59 -68 166 -68q102 0 166 64q65 65 80 178z" />
    <glyph glyph-name="K" unicode="K" horiz-adv-x="1286" 
d="M297 1440h268l-86 -617l596 617h338l-682 -699l481 -741h-319l-434 678l-97 -678h-268z" />
    <glyph glyph-name="L" unicode="L" horiz-adv-x="1073" 
d="M971 0h-877l203 1440h268l-168 -1194h609z" />
    <glyph glyph-name="M" unicode="M" horiz-adv-x="1927" 
d="M352 0h-258l203 1440h315l334 -996l608 996h328l-203 -1440h-258l140 999l-621 -1001h-106l-338 1008z" />
    <glyph glyph-name="N" unicode="N" horiz-adv-x="1468" 
d="M346 0h-252l203 1440h252l479 -1002l141 1002h252l-200 -1440h-258l-476 997z" />
    <glyph glyph-name="O" unicode="O" horiz-adv-x="1693" 
d="M342 1233l-4 -2q106 112 258 174q146 61 311 61q319 0 523 -192t204 -498q0 -165 -61 -311q-62 -148 -174 -260t-260 -174t-312 -62q-315 0 -518 197t-203 493q0 164 62 312q66 154 174 262zM383 670l-2 -2q0 -193 127 -320q125 -125 326 -125q218 0 366 154t148 379
q0 190 -127 323q-126 129 -326 129q-217 0 -365 -157q-147 -156 -147 -381z" />
    <glyph glyph-name="P" unicode="P" horiz-adv-x="1323" 
d="M362 0l-268 -2l201 1440h547q207 0 348 -123t141 -309q0 -238 -168 -375q-171 -139 -436 -139h-297zM795 1204h-265l-65 -479h278q140 0 222 70q84 72 84 190q0 95 -72 158q-70 61 -182 61z" />
    <glyph glyph-name="Q" unicode="Q" horiz-adv-x="1693" 
d="M342 1233l-6 -4q106 112 258 174q146 61 311 61q318 0 522 -192q205 -193 205 -498q0 -192 -86 -366q-86 -171 -239 -285l178 -291h-279l-110 182q-60 -20 -133 -32q-73 -13 -136 -13q-315 0 -518 197t-203 493q0 164 62 312q66 154 174 262zM379 668l2 -4
q0 -195 127 -322q125 -125 330 -125q19 0 65 4q33 4 58 12l-293 482h278l228 -373q86 74 133 184q47 112 47 232q0 190 -127 323q-126 129 -330 129q-218 0 -369 -157q-149 -155 -149 -385z" />
    <glyph glyph-name="R" unicode="R" horiz-adv-x="1372" 
d="M365 0l-271 2l201 1440h543q207 0 348 -117t141 -297q0 -189 -123 -315t-334 -160l387 -553h-315l-373 543h-129zM795 1208h-265l-61 -444h279q132 0 215 65q79 64 79 179q0 91 -69 145q-70 55 -178 55z" />
    <glyph glyph-name="S" unicode="S" horiz-adv-x="1257" 
d="M694 1466l2 -4q238 0 375 -125q138 -126 135 -340h-272q3 111 -62 170q-66 60 -184 60q-101 0 -166 -47q-61 -46 -61 -129q0 -58 37 -95q35 -35 139 -73l162 -58q195 -68 274 -159q80 -92 80 -232q0 -213 -143 -338t-381 -125q-263 0 -420 133q-153 132 -141 367h274
q-6 -125 70 -192q77 -68 217 -68q115 0 182 55q68 56 68 152q0 59 -37 96t-168 86l-176 66q-163 61 -236 151q-76 88 -76 221q0 194 142 312q140 116 366 116z" />
    <glyph glyph-name="T" unicode="T" horiz-adv-x="1134" 
d="M623 0h-267l166 1194h-401l35 246h1073l-35 -246h-403z" />
    <glyph glyph-name="U" unicode="U" horiz-adv-x="1413" 
d="M979 477l131 963h268l-137 -991q-30 -217 -184 -347q-153 -129 -383 -129q-247 0 -402 158q-153 156 -118 393l127 914h268l-127 -924q-18 -128 55 -207q74 -80 205 -80q121 0 201 68q81 69 96 182z" />
    <glyph glyph-name="V" unicode="V" horiz-adv-x="1353" 
d="M743 0h-286l-291 1440h289l196 -1069l494 1069h295z" />
    <glyph glyph-name="W" unicode="W" horiz-adv-x="2072" 
d="M666 0h-285l-213 1440h281l133 -1071l454 1071h248l158 -1067l428 1067h284l-618 -1440h-285l-155 969z" />
    <glyph glyph-name="X" unicode="X" horiz-adv-x="1359" 
d="M238 0h-314l623 737l-395 703h307l274 -502l422 502h307l-598 -711l426 -729h-311l-301 524z" />
    <glyph glyph-name="Y" unicode="Y" horiz-adv-x="1329" 
d="M725 0h-268l71 504l-362 936h291l237 -649l426 649h295l-618 -922z" />
    <glyph glyph-name="Z" unicode="Z" horiz-adv-x="1210" 
d="M1055 0h-1051l31 215l821 979h-668l33 246h1022l-31 -217l-823 -977h701z" />
    <glyph glyph-name="bracketleft" unicode="[" horiz-adv-x="737" 
d="M836 1659l-35 -238h-250l-207 -1470h250l-33 -238h-508l275 1946h508z" />
    <glyph glyph-name="backslash" unicode="\" horiz-adv-x="1376" 
d="M463 1659l760 -1946h-273l-760 1946h273z" />
    <glyph glyph-name="bracketright" unicode="]" horiz-adv-x="735" 
d="M-55 -287l35 238h249l207 1470h-250l33 238h508l-274 -1946h-508z" />
    <glyph glyph-name="asciicircum" unicode="^" horiz-adv-x="1167" 
d="M475 1440h248l375 -858h-269l-231 542l-229 -542h-271z" />
    <glyph glyph-name="underscore" unicode="_" horiz-adv-x="901" 
d="M-123 -213h905v-221h-905v221z" />
    <glyph glyph-name="grave" unicode="`" horiz-adv-x="589" 
d="M242 1167l-127 301h241l123 -301h-237z" />
    <glyph glyph-name="a" unicode="a" horiz-adv-x="1120" 
d="M596 850l2 -4q-79 0 -135 -39q-59 -41 -86 -111h-250q47 171 178 269t307 98q206 0 314 -123t78 -326l-97 -616h-241l16 115q-56 -68 -131 -105t-166 -37q-143 0 -235 80q-93 81 -93 205q0 144 99 233t297 123l305 56q12 89 -31 135q-44 47 -131 47zM311 285h4
q0 -52 37 -82q39 -31 105 -31q96 0 176 80q81 81 96 186l6 39l-250 -47q-89 -15 -131 -51q-43 -37 -43 -94z" />
    <glyph glyph-name="b" unicode="b" horiz-adv-x="1351" 
d="M317 0h-247l213 1518h258l-84 -598q71 74 155 108q87 37 187 37q213 0 344 -137q133 -139 133 -350q0 -265 -156 -435q-156 -172 -395 -172q-125 0 -225 56q-99 55 -156 157zM1004 555v-6q0 119 -80 199q-79 79 -201 79q-140 0 -236 -96q-94 -94 -94 -239q0 -125 80 -205
t207 -80q140 0 231 98q93 101 93 250z" />
    <glyph glyph-name="c" unicode="c" horiz-adv-x="1239" 
d="M612 211l-4 2q107 0 183 55t116 156h256q-53 -218 -200 -332q-147 -117 -367 -117q-225 0 -377 146q-149 143 -149 356q0 249 166 418q167 170 415 170q213 0 357 -123q145 -124 166 -317h-250q-24 90 -99 147q-73 55 -170 55q-144 0 -235 -94q-92 -95 -92 -241
q0 -121 80 -201t204 -80z" />
    <glyph glyph-name="d" unicode="d" horiz-adv-x="1349" 
d="M1343 1518l-217 -1520h-241l18 135q-70 -79 -162 -121q-96 -41 -196 -41q-212 0 -344 138q-131 137 -131 350q0 257 157 434q156 172 398 172q125 0 219 -49q94 -50 153 -144l90 646h256zM340 481v4q0 -118 80 -198t201 -80q139 0 235 96q94 94 94 240q0 127 -80 207
q-79 79 -206 79q-142 0 -232 -100q-92 -103 -92 -248z" />
    <glyph glyph-name="e" unicode="e" horiz-adv-x="1234" 
d="M602 186v2q90 0 154 37q63 37 104 111h260q-63 -162 -205 -264q-141 -99 -323 -99q-230 0 -375 142t-145 360q0 252 168 420q169 172 411 172q227 0 371 -141q143 -140 143 -357q0 -31 -2 -49q-7 -62 -8 -67h-836q9 -118 87 -193q77 -74 196 -74zM645 854h-2
q-95 0 -178 -59q-81 -62 -119 -158h574q-20 98 -95 160q-69 57 -180 57z" />
    <glyph glyph-name="f" unicode="f" horiz-adv-x="772" 
d="M532 809l-110 -807h-258l112 809h-174l33 229h172l19 127q28 193 127 285q94 94 268 94q58 0 102 -8q41 -8 99 -25l-31 -223l-68 17q-37 6 -69 6q-72 0 -119 -41q-43 -40 -55 -127l-15 -107h248l-33 -229h-248z" />
    <glyph glyph-name="g" unicode="g" horiz-adv-x="1290" 
d="M10 -47h248q3 -96 78 -150q73 -55 196 -55q111 0 189 66q75 63 90 172l27 186q-60 -60 -142 -94q-73 -33 -168 -33q-195 0 -321 129q-125 125 -125 324q0 244 147 403q148 160 367 160q121 0 209 -49q93 -53 145 -138l23 160h244l-148 -1040q-30 -212 -172 -336
q-141 -123 -360 -123q-230 0 -377 117q-147 119 -150 301zM604 272v-6q125 0 209 90t84 215q0 111 -74 185q-73 73 -190 73q-121 0 -203 -88t-82 -215q0 -112 72 -184q70 -70 184 -70z" />
    <glyph glyph-name="h" unicode="h" 
d="M332 0l-258 -2l213 1518h258l-82 -574q61 61 135 90q79 31 156 31q183 0 282 -123q99 -126 72 -311l-86 -631h-258l82 592q15 116 -33 176q-49 61 -156 61q-94 0 -157 -57q-68 -59 -80 -141z" />
    <glyph glyph-name="i" unicode="i" horiz-adv-x="555" 
d="M227 1354l-6 -2q0 69 47 116q45 45 123 45q76 0 121 -45q47 -47 47 -116q0 -72 -45 -117t-119 -45t-121 47t-47 117zM328 -2h-258l147 1038h256z" />
    <glyph glyph-name="j" unicode="j" horiz-adv-x="571" 
d="M565 1358l-2 -4q0 -67 -45 -109q-46 -43 -112 -43q-70 0 -113 43t-43 111q0 69 43 112t115 43q71 0 114 -43t43 -110zM80 -66l145 1098h260l-159 -1120q-27 -194 -123 -287q-95 -92 -266 -92q-20 0 -74 4q-43 4 -62 10l31 224l41 -4q21 -3 31 -3q74 0 121 41
q43 40 55 129z" />
    <glyph glyph-name="k" unicode="k" horiz-adv-x="1087" 
d="M332 0h-258l213 1518h258l-129 -908l401 428h305l-454 -479l362 -559h-299l-328 508z" />
    <glyph glyph-name="l" unicode="l" horiz-adv-x="555" 
d="M291 1518h256l-213 -1518h-256z" />
    <glyph glyph-name="m" unicode="m" horiz-adv-x="1882" 
d="M1319 829l-2 -10q-97 0 -154 -57q-60 -58 -73 -156l-86 -614h-259l82 590q15 115 -32 176q-50 65 -148 65q-94 0 -151 -57q-61 -58 -76 -150l-88 -622h-258l147 1038h244l-16 -110q59 64 135 102q75 37 159 37q111 0 193 -49q81 -49 125 -138q60 87 151 138q91 49 197 49
q184 0 283 -123q98 -125 71 -311l-90 -629h-256l82 590q15 114 -33 176q-50 65 -147 65z" />
    <glyph glyph-name="n" unicode="n" 
d="M330 0l-256 -2l147 1038h244l-16 -112q58 67 139 104q78 37 168 37q183 0 282 -123q99 -126 72 -311l-86 -631h-258l82 592q15 116 -33 176q-49 61 -156 61q-90 0 -161 -59q-68 -59 -80 -147z" />
    <glyph glyph-name="o" unicode="o" horiz-adv-x="1265" 
d="M1196 563l-6 -6q0 -248 -170 -418t-424 -170q-233 0 -381 142q-147 141 -147 360q0 244 170 420q169 172 421 172q235 0 385 -141q152 -143 152 -359zM322 485v-4q0 -121 79 -200q80 -80 205 -80q138 0 234 96q94 94 94 238q0 119 -80 202q-79 82 -199 82
q-145 0 -239 -94t-94 -240z" />
    <glyph glyph-name="p" unicode="p" horiz-adv-x="1347" 
d="M1276 580l-2 4q0 -256 -158 -434q-156 -173 -397 -173q-120 0 -215 50q-96 50 -154 141l-84 -598h-256l207 1472h244l-19 -133q68 74 162 117q96 41 195 41q213 0 344 -137q133 -139 133 -350zM1001 559l-4 -6q0 120 -79 199t-201 79q-141 0 -234 -96q-92 -95 -92 -239
q0 -125 80 -205t207 -80q140 0 231 98q92 100 92 250z" />
    <glyph glyph-name="q" unicode="q" horiz-adv-x="1349" 
d="M74 459l-2 -4q0 257 157 434q156 172 398 172q129 0 227 -55q99 -56 154 -156l26 184h244l-207 -1472h-258l78 553q-66 -69 -156 -107q-87 -37 -186 -37q-212 0 -344 138q-131 137 -131 350zM342 479v4q0 -118 80 -198t201 -80q139 0 235 96q94 94 94 240q0 127 -80 207
q-79 79 -206 79q-142 0 -232 -100q-92 -103 -92 -248z" />
    <glyph glyph-name="r" unicode="r" horiz-adv-x="798" 
d="M219 1038l246 -2l-19 -139q59 77 140 117q84 41 170 41q23 0 37 -2l43 -6l-35 -240l-51 6q-16 2 -43 2q-127 0 -203 -76q-80 -77 -98 -204l-76 -535h-258z" />
    <glyph glyph-name="s" unicode="s" horiz-adv-x="1030" 
d="M549 1065l-2 -6q188 0 301 -88q114 -88 117 -246h-260q0 71 -39 104q-41 35 -123 35q-67 0 -109 -28q-41 -27 -41 -80q0 -41 31 -66q33 -26 117 -47l69 -18q171 -46 244 -119q74 -74 74 -184q0 -164 -117 -259q-113 -94 -307 -94q-215 0 -344 97q-126 95 -123 268h270
q-3 -74 45 -119q49 -43 142 -43q75 0 122 35q46 34 46 92q0 42 -27 66q-25 25 -111 47l-104 28q-158 44 -221 113q-68 71 -68 184q0 149 117 238q122 90 301 90z" />
    <glyph glyph-name="t" unicode="t" horiz-adv-x="813" 
d="M813 1038l-29 -233h-274l-64 -440q-12 -87 19 -129q29 -39 115 -39q25 0 67 10q31 8 72 31l-33 -232q-33 -15 -76 -24q-40 -9 -88 -9q-198 0 -284 99t-56 295l68 442h-170l33 229h170l49 324l262 43l-53 -367h272z" />
    <glyph glyph-name="u" unicode="u" horiz-adv-x="1210" 
d="M881 1038l254 -2l-148 -1038h-242l17 111q-56 -67 -135 -103q-81 -35 -160 -35q-180 0 -279 123q-97 120 -69 312l88 630h258l-84 -590q-15 -111 33 -174t147 -63q91 0 156 59q62 62 76 160z" />
    <glyph glyph-name="v" unicode="v" horiz-adv-x="1116" 
d="M629 0h-287l-238 1038h265l157 -731l363 731h272z" />
    <glyph glyph-name="w" unicode="w" horiz-adv-x="1759" 
d="M569 0h-260l-207 1038h250l135 -721l340 721h248l135 -719l336 719h256l-499 -1038h-256l-142 694z" />
    <glyph glyph-name="x" unicode="x" horiz-adv-x="1073" 
d="M225 0h-284l448 530l-287 508h281l182 -327l277 327h280l-436 -514l301 -524h-285l-192 338z" />
    <glyph glyph-name="y" unicode="y" horiz-adv-x="1114" 
d="M887 1038h270l-747 -1472h-265l209 420l-254 1052h267l159 -721z" />
    <glyph glyph-name="z" unicode="z" horiz-adv-x="1046" 
d="M911 0h-921l24 172l645 637h-524l33 229h860l-24 -182l-627 -627h565z" />
    <glyph glyph-name="braceleft" unicode="{" horiz-adv-x="733" 
d="M109 631l-48 -8l31 215h47q60 0 90 34q31 36 43 117l50 324q27 181 122 270q96 90 258 90q37 0 60 -2l59 -6l-35 -238l-36 7q-14 2 -39 2q-56 0 -90 -43q-37 -50 -48 -127l-41 -299q-15 -99 -49 -154q-35 -57 -98 -86q56 -38 74 -98q19 -67 4 -160l-53 -360
q-15 -100 18 -142q34 -43 123 -43h14q11 0 13 2l-33 -237h-33q-203 0 -293 106t-63 307l53 359q12 83 -12 127q-24 43 -88 43z" />
    <glyph glyph-name="bar" unicode="|" horiz-adv-x="663" 
d="M225 1659h256v-1946h-256v1946z" />
    <glyph glyph-name="braceright" unicode="}" horiz-adv-x="733" 
d="M668 741l37 4l-31 -215h-47q-62 0 -90 -32q-31 -36 -43 -117l-50 -324q-27 -181 -122 -270q-96 -90 -259 -90q-34 0 -57 2l-57 6l35 238l36 -6q21 -3 39 -3q57 0 91 43q35 48 47 127l41 299q15 99 49 154q35 57 98 86q-56 38 -74 98q-19 67 -4 160l53 361q15 99 -18 141
q-34 43 -123 43h-12q-10 0 -12 -2l32 237h33q203 0 293 -106q92 -108 65 -307l-53 -359q-12 -80 13 -125q24 -43 90 -43z" />
    <glyph glyph-name="asciitilde" unicode="~" horiz-adv-x="1167" 
d="M666 856l-2 -6q71 -35 108 -43q31 -8 72 -8q70 0 123 30q53 35 114 117v-254q-34 -55 -102 -94q-67 -37 -154 -37q-55 0 -104 12q-52 12 -125 52q-67 33 -113 43q-52 10 -88 10q-78 0 -139 -37q-62 -40 -113 -117v246q29 56 105 104q70 46 160 46q50 0 110 -13
q70 -18 148 -51z" />
    <glyph glyph-name="uni00A0" unicode="&#xa0;" horiz-adv-x="483" 
 />
    <glyph glyph-name="exclamdown" unicode="&#xa1;" horiz-adv-x="561" 
d="M158 893l-4 -2q0 73 51 121q52 49 129 49q76 0 125 -49t49 -121q0 -76 -49 -125t-125 -49q-78 0 -127 49t-49 127zM199 569h166l-13 -475l-71 -497h-271l72 497z" />
    <glyph glyph-name="cent" unicode="&#xa2;" horiz-adv-x="1255" 
d="M686 -14l-268 -60l41 287q-157 53 -252 180q-94 125 -94 295q0 222 139 387t356 195l27 209l266 57l-39 -285q150 -45 242 -153q95 -112 110 -262h-249q-24 90 -99 147q-73 55 -170 55q-144 0 -235 -94q-92 -95 -92 -242q0 -120 80 -200t204 -80q107 0 183 55t116 156
h256q-49 -188 -176 -309q-127 -118 -317 -136z" />
    <glyph glyph-name="sterling" unicode="&#xa3;" horiz-adv-x="1376" 
d="M1214 0l-1189 -8l28 211q109 21 185 112q73 92 88 230h-224l31 213h189q-5 62 -5 73v74q0 259 152 408q150 147 387 147q218 0 356 -135q139 -136 142 -373h-271q0 122 -61 189t-172 67q-125 0 -195 -73q-71 -77 -71 -205v-62q0 -10 4 -104h344l-31 -213h-311
q-9 -84 -43 -162q-38 -84 -86 -143h786z" />
    <glyph glyph-name="currency" unicode="&#xa4;" horiz-adv-x="1343" 
d="M309 170l-270 -4l291 338q-24 45 -31 84q-10 52 -10 90q0 61 22 135q22 67 62 125l-185 313h254l103 -174q46 21 88 29q58 10 92 10q53 0 102 -12q54 -12 91 -39l163 188h269l-291 -335q28 -62 35 -89q12 -46 12 -92q0 -61 -23 -135q-22 -66 -65 -121l182 -311h-254
l-100 172q-48 -23 -88 -31q-58 -10 -92 -10q-58 0 -101 14q-45 14 -94 43zM709 903l-7 -4q-89 0 -149 -63q-61 -64 -61 -154q0 -78 51 -129t129 -51q95 0 159 61t64 152q0 84 -51 135q-53 53 -135 53z" />
    <glyph glyph-name="yen" unicode="&#xa5;" horiz-adv-x="1366" 
d="M741 0h-268l37 264h-369l25 185h371l8 55l-21 51h-344l25 184h248l-271 701h291l238 -649l426 649h295l-471 -701h251l-24 -184h-350l-25 -37l-10 -69h371l-25 -185h-371z" />
    <glyph glyph-name="brokenbar" unicode="&#xa6;" horiz-adv-x="673" 
d="M231 1659h256v-819h-256v819zM231 -287v819h256v-819h-256z" />
    <glyph glyph-name="section" unicode="&#xa7;" horiz-adv-x="1181" 
d="M719 506l-215 98q-182 83 -264 184t-82 234q0 199 141 319q145 121 360 121q238 0 375 -125q141 -126 135 -333h-264q3 109 -61 170t-182 61q-102 0 -166 -55t-64 -148q0 -65 45 -110q44 -49 236 -154l299 -164l-17 -98h-276zM455 500l209 -119q195 -104 272 -199
q76 -94 76 -215q0 -193 -140 -315q-137 -119 -356 -119q-242 0 -379 125q-142 127 -133 338h264q-3 -106 62 -168q64 -61 182 -61q102 0 166 55q63 54 63 147q0 60 -47 113q-48 55 -231 154l-299 163l14 101h277z" />
    <glyph glyph-name="dieresis" unicode="&#xa8;" horiz-adv-x="765" 
d="M350 1309q0 -55 -37 -95q-35 -38 -92 -38q-56 0 -94 38q-39 39 -39 95q0 58 37 98q36 39 96 39q56 0 92 -39q37 -40 37 -98zM682 1309q0 -55 -37 -95q-35 -38 -92 -38q-60 0 -98 38q-39 39 -39 95q0 59 39 98t98 39q56 0 92 -39q37 -40 37 -98z" />
    <glyph glyph-name="copyright" unicode="&#xa9;" horiz-adv-x="1671" 
d="M1606 719l-4 -2q0 -152 -58 -283q-56 -128 -162 -241q-104 -104 -241 -162q-134 -58 -285 -58q-304 0 -524 220q-217 217 -217 526t219 528t526 219t526 -219q220 -220 220 -528zM256 717q0 -244 176 -426q175 -178 424 -178q248 0 426 178t178 426t-178 426t-426 178
q-249 0 -424 -178q-176 -182 -176 -426zM860 1122h-4q156 0 268 -92q111 -91 138 -242h-222q-20 57 -69 93q-52 34 -113 34q-87 0 -141 -57q-55 -58 -55 -143q0 -86 55 -144q54 -57 141 -57q62 0 115 35q50 37 69 96h222q-27 -151 -138 -242q-112 -92 -266 -92
q-182 0 -299 117t-117 291q0 175 117 289q120 114 299 114z" />
    <glyph glyph-name="ordfeminine" unicode="&#xaa;" horiz-adv-x="743" 
d="M397 1282l-164 -6q15 84 84 135q63 51 160 51q111 0 176 -59q62 -59 47 -160l-45 -313h-147l6 53q-26 -33 -63 -49q-43 -19 -82 -19q-72 0 -119 41q-45 39 -45 105q0 73 53 117q52 43 160 61l129 23q9 33 -10 55t-56 22q-35 0 -55 -14q-23 -17 -29 -43zM362 1079h-4
q0 -19 15 -28q18 -11 43 -11q32 0 67 27q34 26 37 57l4 25l-96 -19q-36 -6 -51 -18t-15 -33zM162 788h473l-23 -161h-473z" />
    <glyph glyph-name="guillemotleft" unicode="&#xab;" horiz-adv-x="1019" 
d="M236 72l-160 448l286 451h256l-296 -465l155 -434h-241zM618 72l-159 448l286 451h256l-296 -465l155 -434h-242z" />
    <glyph glyph-name="logicalnot" unicode="&#xac;" horiz-adv-x="1167" 
d="M109 616v203h938v-571h-205v368h-733z" />
    <glyph glyph-name="uni00AD" unicode="&#xad;" horiz-adv-x="776" 
d="M152 721h499v-232h-499v232z" />
    <glyph glyph-name="registered" unicode="&#xae;" horiz-adv-x="1224" 
d="M672 444h2q-213 0 -361 148q-147 147 -147 360q0 216 147 363t361 147q215 0 362 -147q148 -148 148 -363q0 -213 -150 -360q-151 -148 -362 -148zM674 1337q-161 0 -271 -110t-110 -273q0 -160 110 -270q111 -111 271 -111q159 0 270 111t111 270q0 162 -111 273
q-110 110 -270 110zM616 721l-145 -2v475h234q82 0 133 -45q55 -46 55 -117q0 -44 -25 -86q-24 -40 -67 -61l117 -164h-166l-97 139h-39v-139zM688 1071l-76 -2v-102h76q25 0 41 16t16 37t-16 37q-14 14 -41 14z" />
    <glyph glyph-name="macron" unicode="&#xaf;" horiz-adv-x="743" 
d="M647 1212h-575l24 174h576z" />
    <glyph glyph-name="degree" unicode="&#xb0;" horiz-adv-x="774" 
d="M782 1159q0 -129 -90 -219t-219 -90q-125 0 -221 90q-92 89 -92 219q0 126 92 215q96 90 221 90q129 0 219 -90t90 -215zM324 1157q0 -59 43 -102t104 -43q59 0 102 43t43 102q0 62 -43 105t-102 43q-61 0 -104 -43t-43 -105z" />
    <glyph glyph-name="plusminus" unicode="&#xb1;" horiz-adv-x="1167" 
d="M678 360h-205v312h-367v202h367v312h205v-312h366v-202h-366v-312zM106 6v205h938v-205h-938z" />
    <glyph glyph-name="twosuperior" unicode="&#xb2;" horiz-adv-x="665" 
d="M436 1180l260 -6l-24 -173h-533l23 160l299 225q35 24 57 56q19 28 19 55q0 28 -19 47t-49 19q-27 0 -57 -23q-25 -22 -31 -55h-186q21 113 98 184q76 70 188 70q113 0 181 -56q67 -55 67 -147q0 -71 -37 -129q-35 -59 -147 -143z" />
    <glyph glyph-name="threesuperior" unicode="&#xb3;" horiz-adv-x="657" 
d="M516 1239l-2 -4q0 37 -25 59q-30 23 -67 23h-66l19 129h74q45 0 65 20q23 23 23 58q0 30 -19 49q-18 18 -51 18q-35 0 -55 -20q-23 -23 -29 -58h-184q18 102 92 164t182 62q109 0 180 -53q68 -53 68 -136q0 -58 -27 -104q-26 -46 -80 -70q42 -25 62 -61q22 -42 22 -84
q0 -102 -75 -168q-77 -68 -203 -68q-129 0 -199 64q-74 65 -74 166h179q3 -37 28 -56q20 -20 66 -20q41 0 69 25q27 24 27 65z" />
    <glyph glyph-name="acute" unicode="&#xb4;" horiz-adv-x="589" 
d="M319 1167h-253l213 301h253z" />
    <glyph glyph-name="mu" unicode="&#xb5;" horiz-adv-x="1245" 
d="M903 1038l256 2l-147 -1038h-242l16 111q-56 -67 -135 -103q-81 -35 -159 -35q-26 0 -76 11q-36 9 -70 30l-63 -448h-256l204 1472h258l-86 -610q-15 -95 35 -160q49 -61 146 -61q90 0 155 59q62 62 76 160z" />
    <glyph glyph-name="paragraph" unicode="&#xb6;" horiz-adv-x="1339" 
d="M895 1440l-244 -1731h-213l123 864h-18q-182 0 -299 111t-117 287q0 219 149 344t375 125h244zM1032 -291h-213l242 1727h213z" />
    <glyph glyph-name="periodcentered" unicode="&#xb7;" horiz-adv-x="555" 
d="M477 725l4 -2q0 -73 -51 -121q-52 -49 -129 -49q-76 0 -125 49t-49 121q0 78 49 127t125 49q78 0 127 -49t49 -125z" />
    <glyph glyph-name="cedilla" unicode="&#xb8;" horiz-adv-x="806" 
d="M113 -201l176 219h180l-98 -124q97 -9 153 -62t56 -139q0 -108 -76 -178t-191 -70q-111 0 -182 59q-68 59 -68 152h181q3 -30 22 -43q22 -16 53 -16q36 0 60 24t24 60t-20 53q-21 18 -55 18q-27 0 -45 -6q-18 -7 -33 -25z" />
    <glyph glyph-name="onesuperior" unicode="&#xb9;" horiz-adv-x="438" 
d="M408 1008h-179l78 548h-137l63 173h277z" />
    <glyph glyph-name="ordmasculine" unicode="&#xba;" horiz-adv-x="806" 
d="M219 1178l4 4q0 116 86 202t207 86q113 0 186 -73q74 -74 74 -178q0 -123 -88 -211t-209 -88q-113 0 -186 73q-74 74 -74 185zM385 1186l4 -2q0 -47 31 -78t80 -31q53 0 86 39q35 41 35 98q0 46 -31 74q-37 29 -80 29q-51 0 -88 -37t-37 -92zM184 797h535l-23 -162h-534z
" />
    <glyph glyph-name="guillemotright" unicode="&#xbb;" horiz-adv-x="1021" 
d="M782 971l160 -449l-287 -450h-256l297 465l-155 434h241zM399 971l160 -449l-287 -450h-256l297 465l-155 434h241z" />
    <glyph glyph-name="onequarter" unicode="&#xbc;" horiz-adv-x="1443" 
d="M735 260l326 461h213l-318 -442h140l16 110l178 39l-22 -149h53l-23 -164h-55l-14 -115h-172l14 115h-358zM424 719h-178l78 549h-138l64 172h276zM1260 1440h221l-1268 -1440h-221z" />
    <glyph glyph-name="onehalf" unicode="&#xbd;" horiz-adv-x="1501" 
d="M1112 172l260 -6l-24 -172h-533l23 160l299 225q37 24 57 55q18 27 18 55q0 30 -18 48t-49 18q-28 0 -58 -23q-24 -21 -30 -55h-187q21 113 99 185q75 69 188 69t180 -55q68 -56 68 -148q0 -71 -37 -129q-35 -59 -147 -143zM426 713h-178l78 549h-138l64 172h276z
M1262 1434h221l-1268 -1440h-221z" />
    <glyph glyph-name="threequarters" unicode="&#xbe;" horiz-adv-x="1519" 
d="M805 260l325 461h213l-317 -442h139l17 110l178 39l-23 -149h54l-23 -164h-55l-15 -115h-172l15 115h-359zM1346 1440h221l-1268 -1440h-221zM498 948l-2 -4q0 38 -25 60q-28 22 -68 22h-65l18 129h74q45 0 66 21q22 22 22 57q0 31 -18 49t-51 18q-36 0 -56 -20
q-22 -22 -28 -57h-185q18 101 92 163t183 62t180 -53q67 -52 67 -135q0 -60 -26 -105q-26 -46 -80 -70q40 -24 61 -61q23 -44 23 -84q0 -101 -76 -168t-203 -67q-129 0 -198 63q-74 65 -74 166h178q3 -35 29 -55q21 -21 65 -21q42 0 70 25q27 24 27 65z" />
    <glyph glyph-name="questiondown" unicode="&#xbf;" horiz-adv-x="1122" 
d="M459 893l-4 -2q0 73 51 121q52 49 129 49q76 0 125 -49t49 -121q0 -76 -49 -125t-125 -49q-78 0 -127 49t-49 127zM709 444l-277 -186q-79 -52 -121 -125q-43 -73 -43 -153q0 -83 56 -130q51 -45 153 -45q94 0 166 60q68 59 86 166h264q-41 -213 -184 -338t-356 -125
q-208 0 -332 106q-129 108 -129 277q0 131 71 258q72 123 195 209l217 151h248z" />
    <glyph glyph-name="Agrave" unicode="&#xc0;" horiz-adv-x="1415" 
d="M690 1440h287l330 -1440h-281l-61 301h-580l-147 -301h-283zM918 526l-125 600l-295 -600h420zM709 1563l-127 301h241l123 -301h-237z" />
    <glyph glyph-name="Aacute" unicode="&#xc1;" horiz-adv-x="1415" 
d="M690 1440h287l330 -1440h-281l-61 301h-580l-147 -301h-283zM918 526l-125 600l-295 -600h420zM975 1563h-254l213 301h254z" />
    <glyph glyph-name="Acircumflex" unicode="&#xc2;" horiz-adv-x="1415" 
d="M690 1440h287l330 -1440h-281l-61 301h-580l-147 -301h-283zM918 526l-125 600l-295 -600h420zM500 1563l262 301h266l178 -301h-219l-104 172l-152 -172h-231z" />
    <glyph glyph-name="Atilde" unicode="&#xc3;" horiz-adv-x="1415" 
d="M690 1440h287l330 -1440h-281l-61 301h-580l-147 -301h-283zM918 526l-125 600l-295 -600h420zM909 1780h-6q36 -28 41 -31q12 -6 23 -6q24 0 37 22q12 24 20 74h170q-9 -140 -61 -207t-148 -67q-39 0 -74 12q-27 8 -75 53q-30 30 -43 35q-15 6 -31 6q-32 0 -47 -24
q-18 -32 -23 -76h-172q9 141 66 209q56 71 159 71q46 0 78 -14q36 -13 86 -57z" />
    <glyph glyph-name="Adieresis" unicode="&#xc4;" horiz-adv-x="1415" 
d="M690 1440h287l330 -1440h-281l-61 301h-580l-147 -301h-283zM918 526l-125 600l-295 -600h420zM831 1702q0 -55 -36 -94t-93 -39q-55 0 -94 39t-39 94q0 58 37 98q36 39 96 39q57 0 93 -39t36 -98zM1163 1702q0 -54 -37 -94q-36 -39 -92 -39q-59 0 -98 39t-39 94
q0 59 39 98t98 39q56 0 92 -39q37 -40 37 -98z" />
    <glyph glyph-name="Aring" unicode="&#xc5;" horiz-adv-x="1415" 
d="M690 1440h287l330 -1440h-281l-61 301h-580l-147 -301h-283zM918 526l-125 600l-295 -600h420zM1100 1759q0 -91 -68 -153t-162 -62t-159 62q-66 63 -66 153t66 156q63 63 159 63q99 0 162 -63q68 -65 68 -156zM788 1759h-2q0 -34 25 -59t59 -25q37 0 62 25q24 24 24 59
q0 38 -24 62t-62 24q-33 0 -57 -24q-25 -25 -25 -62z" />
    <glyph glyph-name="AE" unicode="&#xc6;" horiz-adv-x="1951" 
d="M1772 0h-918l43 301h-506l-221 -301h-293l1057 1440h1030l-37 -246h-635l-51 -346h590l-33 -234h-588l-53 -368h647zM1016 1153l-459 -627h371z" />
    <glyph glyph-name="Ccedilla" unicode="&#xc7;" horiz-adv-x="1650" 
d="M1309 584l286 -2q-67 -258 -258 -422t-448 -185l-62 -77q98 -9 154 -62q55 -52 55 -139q0 -109 -75 -178q-76 -70 -191 -70q-111 0 -182 59q-68 59 -68 152h180q3 -29 23 -43q22 -16 53 -16q36 0 60 24t24 60t-20 53q-21 18 -56 18q-27 0 -45 -6q-18 -7 -32 -24l-138 77
l144 181q-272 35 -437 221t-165 454q0 159 59 310q60 147 170 260q115 115 258 176q146 61 309 61q286 0 477 -161q194 -164 228 -424h-287q-38 148 -154 239q-118 92 -276 92q-210 0 -358 -157t-148 -381q0 -194 123 -320q122 -125 319 -125q160 0 289 97q128 96 189 258z
" />
    <glyph glyph-name="Egrave" unicode="&#xc8;" horiz-adv-x="1191" 
d="M625 1563l-127 301h241l123 -301h-237zM1012 0h-918l203 1440h907l-37 -246h-635l-51 -346h590l-33 -234h-587l-54 -368h647z" />
    <glyph glyph-name="Eacute" unicode="&#xc9;" horiz-adv-x="1191" 
d="M1012 0h-918l203 1440h907l-37 -246h-635l-51 -346h590l-33 -234h-587l-54 -368h647zM891 1563h-254l213 301h254z" />
    <glyph glyph-name="Ecircumflex" unicode="&#xca;" horiz-adv-x="1191" 
d="M416 1563l262 301h266l178 -301h-219l-104 172l-152 -172h-231zM1012 0h-918l203 1440h907l-37 -246h-635l-51 -346h590l-33 -234h-587l-54 -368h647z" />
    <glyph glyph-name="Edieresis" unicode="&#xcb;" horiz-adv-x="1191" 
d="M1012 0h-918l203 1440h907l-37 -246h-635l-51 -346h590l-33 -234h-587l-54 -368h647zM748 1702q0 -54 -37 -94q-36 -39 -93 -39q-55 0 -94 39t-39 94q0 58 37 98q36 39 96 39q57 0 93 -39q37 -40 37 -98zM1079 1702q0 -54 -37 -94q-36 -39 -92 -39q-59 0 -98 39t-39 94
q0 59 39 98t98 39q56 0 92 -39q37 -40 37 -98z" />
    <glyph glyph-name="Igrave" unicode="&#xcc;" horiz-adv-x="610" 
d="M362 0h-268l203 1440h268zM305 1563l-127 301h242l123 -301h-238z" />
    <glyph glyph-name="Iacute" unicode="&#xcd;" horiz-adv-x="610" 
d="M362 0h-268l203 1440h268zM571 1563h-254l213 301h254z" />
    <glyph glyph-name="Icircumflex" unicode="&#xce;" horiz-adv-x="610" 
d="M362 0h-268l203 1440h268zM96 1563l262 301h267l178 -301h-219l-105 172l-151 -172h-232z" />
    <glyph glyph-name="Idieresis" unicode="&#xcf;" horiz-adv-x="610" 
d="M362 0h-268l203 1440h268zM428 1702q0 -54 -37 -94q-36 -39 -92 -39q-55 0 -94 39t-39 94q0 58 37 98q36 39 96 39q56 0 92 -39q37 -40 37 -98zM760 1702q0 -54 -37 -94q-36 -39 -92 -39q-60 0 -99 39q-38 38 -38 94q0 60 38 98q39 39 99 39q56 0 92 -39q37 -40 37 -98z
" />
    <glyph glyph-name="Eth" unicode="&#xd0;" horiz-adv-x="1601" 
d="M686 0l-555 -4l86 618h-168l27 197h168l88 625h528q288 0 483 -183t195 -460q0 -365 -235 -578q-238 -215 -617 -215zM485 614l-51 -368h275q244 0 397 141q154 142 154 381q0 187 -123 301q-119 113 -322 113h-248l-53 -371h348l-26 -197h-351z" />
    <glyph glyph-name="Ntilde" unicode="&#xd1;" horiz-adv-x="1468" 
d="M938 1780h-6q36 -28 41 -31q12 -6 22 -6q24 0 37 22q13 27 21 74h170q-9 -139 -62 -207q-52 -67 -147 -67q-40 0 -74 12q-28 9 -76 53q-30 30 -43 35q-15 6 -30 6q-33 0 -48 -24q-16 -29 -22 -76h-172q9 142 65 209q56 71 160 71q46 0 78 -14q36 -13 86 -57zM340 0h-252
l203 1440h252l479 -1002l141 1002h252l-201 -1440h-258l-475 997z" />
    <glyph glyph-name="Ograve" unicode="&#xd2;" horiz-adv-x="1693" 
d="M807 1563l-127 301h242l122 -301h-237zM342 1233l-4 -2q106 112 258 174q146 61 311 61q319 0 523 -192t204 -498q0 -165 -61 -311q-62 -148 -174 -260t-260 -174t-312 -62q-315 0 -518 197t-203 493q0 164 62 312q66 154 174 262zM383 670l-2 -2q0 -193 127 -320
q125 -125 326 -125q218 0 366 154t148 379q0 190 -127 323q-126 129 -326 129q-217 0 -365 -157q-147 -156 -147 -381z" />
    <glyph glyph-name="Oacute" unicode="&#xd3;" horiz-adv-x="1693" 
d="M1073 1563h-254l213 301h254zM342 1233l-4 -2q106 112 258 174q146 61 311 61q319 0 523 -192t204 -498q0 -165 -61 -311q-62 -148 -174 -260t-260 -174t-312 -62q-315 0 -518 197t-203 493q0 164 62 312q66 154 174 262zM383 670l-2 -2q0 -193 127 -320
q125 -125 326 -125q218 0 366 154t148 379q0 190 -127 323q-126 129 -326 129q-217 0 -365 -157q-147 -156 -147 -381z" />
    <glyph glyph-name="Ocircumflex" unicode="&#xd4;" horiz-adv-x="1693" 
d="M596 1563l262 301h266l179 -301h-220l-104 172l-152 -172h-231zM342 1233l-4 -2q106 112 258 174q146 61 311 61q319 0 523 -192t204 -498q0 -165 -61 -311q-62 -148 -174 -260t-260 -174t-312 -62q-315 0 -518 197t-203 493q0 164 62 312q66 154 174 262zM383 670l-2 -2
q0 -193 127 -320q125 -125 326 -125q218 0 366 154t148 379q0 190 -127 323q-126 129 -326 129q-217 0 -365 -157q-147 -156 -147 -381z" />
    <glyph glyph-name="Otilde" unicode="&#xd5;" horiz-adv-x="1693" 
d="M342 1233l-4 -2q106 112 258 174q146 61 311 61q319 0 523 -192t204 -498q0 -165 -61 -311q-62 -148 -174 -260t-260 -174t-312 -62q-315 0 -518 197t-203 493q0 164 62 312q66 154 174 262zM383 670l-2 -2q0 -193 127 -320q125 -125 326 -125q218 0 366 154t148 379
q0 190 -127 323q-126 129 -326 129q-217 0 -365 -157q-147 -156 -147 -381zM1001 1776h-6q36 -28 41 -31q12 -6 23 -6q24 0 37 22q12 24 20 74h170q-9 -140 -61 -207t-148 -67q-39 0 -73 12q-28 9 -76 53q-30 30 -43 35q-15 6 -31 6q-31 0 -47 -25q-18 -32 -23 -75h-172
q9 141 66 209q56 71 160 71q45 0 77 -14q36 -13 86 -57z" />
    <glyph glyph-name="Odieresis" unicode="&#xd6;" horiz-adv-x="1693" 
d="M342 1233l-4 -2q106 112 258 174q146 61 311 61q319 0 523 -192t204 -498q0 -165 -61 -311q-62 -148 -174 -260t-260 -174t-312 -62q-315 0 -518 197t-203 493q0 164 62 312q66 154 174 262zM383 670l-2 -2q0 -193 127 -320q125 -125 326 -125q218 0 366 154t148 379
q0 190 -127 323q-126 129 -326 129q-217 0 -365 -157q-147 -156 -147 -381zM924 1698q0 -54 -37 -94q-36 -39 -92 -39t-95 39q-38 38 -38 94q0 59 36 98t97 39q56 0 92 -39q37 -40 37 -98zM1255 1698q0 -55 -36 -94t-93 -39q-59 0 -98 39t-39 94q0 59 39 98t98 39
q57 0 93 -39t36 -98z" />
    <glyph glyph-name="multiply" unicode="&#xd7;" horiz-adv-x="1167" 
d="M309 272l-145 144l301 299l-297 295l145 145l295 -295l295 295l146 -145l-297 -295l299 -299l-146 -144l-297 297z" />
    <glyph glyph-name="Oslash" unicode="&#xd8;" horiz-adv-x="1693" 
d="M485 47l-94 -121h-289l193 246q-93 93 -143 221q-50 127 -50 264q0 164 62 312q66 154 174 262q106 112 258 174q146 61 311 61q92 0 180 -18q90 -18 168 -55l91 116h288l-192 -245q93 -93 143 -217q49 -122 49 -267q0 -165 -61 -311q-62 -148 -174 -260t-260 -174
t-312 -62q-90 0 -180 19q-90 20 -162 55zM895 1206l-6 -2q-217 0 -365 -157q-147 -156 -147 -381q0 -82 24 -152q24 -74 70 -129l621 782q-43 20 -95 29q-55 10 -102 10zM829 219v-2q219 0 367 154q147 153 147 379q0 77 -24 151q-28 79 -70 133l-618 -780q35 -16 96 -27
q44 -8 102 -8z" />
    <glyph glyph-name="Ugrave" unicode="&#xd9;" horiz-adv-x="1413" 
d="M707 1563l-127 301h241l123 -301h-237zM979 477l131 963h268l-137 -991q-30 -217 -184 -347q-153 -129 -383 -129q-247 0 -402 158q-153 156 -118 393l127 914h268l-127 -924q-18 -128 55 -207q74 -80 205 -80q121 0 201 68q81 69 96 182z" />
    <glyph glyph-name="Uacute" unicode="&#xda;" horiz-adv-x="1413" 
d="M979 477l131 963h268l-137 -991q-30 -217 -184 -347q-153 -129 -383 -129q-247 0 -402 158q-153 156 -118 393l127 914h268l-127 -924q-18 -128 55 -207q74 -80 205 -80q121 0 201 68q81 69 96 182zM971 1563h-254l213 301h254z" />
    <glyph glyph-name="Ucircumflex" unicode="&#xdb;" horiz-adv-x="1413" 
d="M498 1563l262 301h266l178 -301h-219l-104 172l-152 -172h-231zM979 477l131 963h268l-137 -991q-30 -217 -184 -347q-153 -129 -383 -129q-247 0 -402 158q-153 156 -118 393l127 914h268l-127 -924q-18 -128 55 -207q74 -80 205 -80q121 0 201 68q81 69 96 182z" />
    <glyph glyph-name="Udieresis" unicode="&#xdc;" horiz-adv-x="1413" 
d="M979 477l131 963h268l-137 -991q-30 -217 -184 -347q-153 -129 -383 -129q-247 0 -402 158q-153 156 -118 393l127 914h268l-127 -924q-18 -128 55 -207q74 -80 205 -80q121 0 201 68q81 69 96 182zM827 1702q0 -55 -36 -94t-93 -39q-55 0 -94 39t-39 94q0 58 37 98
q36 39 96 39q57 0 93 -39t36 -98zM1159 1702q0 -54 -37 -94q-36 -39 -92 -39q-59 0 -98 39t-39 94q0 59 39 98t98 39q56 0 92 -39q37 -40 37 -98z" />
    <glyph glyph-name="Yacute" unicode="&#xdd;" horiz-adv-x="1329" 
d="M725 0h-268l71 504l-362 936h291l237 -649l426 649h295l-618 -922zM938 1563h-254l213 301h254z" />
    <glyph glyph-name="Thorn" unicode="&#xde;" horiz-adv-x="1351" 
d="M295 1440l268 -2l-35 -244h287q207 0 348 -123q142 -124 142 -311q0 -238 -168 -375q-171 -139 -437 -139h-303l-35 -246h-268zM1022 739v-4q0 95 -72 158q-70 61 -184 61h-268l-68 -475h287q139 0 221 70q84 72 84 190z" />
    <glyph glyph-name="germandbls" unicode="&#xdf;" horiz-adv-x="1280" 
d="M942 463l-6 -8q0 99 -68 161t-182 62h-115l27 199h111q105 0 176 65q67 64 67 164q0 88 -57 139q-59 53 -154 53q-105 0 -174 -63q-73 -67 -88 -166l-151 -1075h-258l149 1057q34 232 180 360q147 129 367 129q193 0 317 -106q129 -108 129 -277q0 -129 -63 -221
q-63 -97 -180 -148q102 -46 159 -139q60 -97 60 -203q0 -202 -135 -340q-134 -137 -332 -137q-65 0 -135 17q-59 15 -99 49l31 223q38 -24 84 -39q44 -12 92 -12q106 0 178 72q70 70 70 184z" />
    <glyph glyph-name="agrave" unicode="&#xe0;" horiz-adv-x="1120" 
d="M596 850l2 -4q-79 0 -135 -39q-59 -41 -86 -111h-250q47 171 178 269t307 98q206 0 314 -123t78 -326l-97 -616h-241l16 115q-56 -68 -131 -105t-166 -37q-143 0 -235 80q-93 81 -93 205q0 144 99 233t297 123l305 56q12 89 -31 135q-44 47 -131 47zM311 285h4
q0 -52 37 -82q39 -31 105 -31q96 0 176 80q81 81 96 186l6 39l-250 -47q-89 -15 -131 -51q-43 -37 -43 -94zM492 1163l-127 301h241l123 -301h-237z" />
    <glyph glyph-name="aacute" unicode="&#xe1;" horiz-adv-x="1120" 
d="M596 850l2 -4q-79 0 -135 -39q-59 -41 -86 -111h-250q47 171 178 269t307 98q206 0 314 -123t78 -326l-97 -616h-241l16 115q-56 -68 -131 -105t-166 -37q-143 0 -235 80q-93 81 -93 205q0 144 99 233t297 123l305 56q12 89 -31 135q-44 47 -131 47zM311 285h4
q0 -52 37 -82q39 -31 105 -31q96 0 176 80q81 81 96 186l6 39l-250 -47q-89 -15 -131 -51q-43 -37 -43 -94zM768 1163h-254l213 301h254z" />
    <glyph glyph-name="acircumflex" unicode="&#xe2;" horiz-adv-x="1120" 
d="M596 850l2 -4q-79 0 -135 -39q-59 -41 -86 -111h-250q47 171 178 269t307 98q206 0 314 -123t78 -326l-97 -616h-241l16 115q-56 -68 -131 -105t-166 -37q-143 0 -235 80q-93 81 -93 205q0 144 99 233t297 123l305 56q12 89 -31 135q-44 47 -131 47zM311 285h4
q0 -52 37 -82q39 -31 105 -31q96 0 176 80q81 81 96 186l6 39l-250 -47q-89 -15 -131 -51q-43 -37 -43 -94zM283 1163l262 301h266l178 -301h-219l-104 172l-152 -172h-231z" />
    <glyph glyph-name="atilde" unicode="&#xe3;" horiz-adv-x="1120" 
d="M596 850l2 -4q-79 0 -135 -39q-59 -41 -86 -111h-250q47 171 178 269t307 98q206 0 314 -123t78 -326l-97 -616h-241l16 115q-56 -68 -131 -105t-166 -37q-143 0 -235 80q-93 81 -93 205q0 144 99 233t297 123l305 56q12 89 -31 135q-44 47 -131 47zM311 285h4
q0 -52 37 -82q39 -31 105 -31q96 0 176 80q81 81 96 186l6 39l-250 -47q-89 -15 -131 -51q-43 -37 -43 -94zM711 1384h-6q34 -26 40 -30q12 -6 23 -6q24 0 37 22q12 24 20 74h170q-9 -140 -61 -207q-53 -68 -148 -68q-36 0 -73 13q-28 9 -76 53q-30 30 -43 35q-15 6 -31 6
q-31 0 -47 -25q-17 -30 -22 -75h-172q9 141 65 208q57 72 160 72q46 0 78 -14q34 -13 86 -58z" />
    <glyph glyph-name="adieresis" unicode="&#xe4;" horiz-adv-x="1120" 
d="M596 850l2 -4q-79 0 -135 -39q-59 -41 -86 -111h-250q47 171 178 269t307 98q206 0 314 -123t78 -326l-97 -616h-241l16 115q-56 -68 -131 -105t-166 -37q-143 0 -235 80q-93 81 -93 205q0 144 99 233t297 123l305 56q12 89 -31 135q-44 47 -131 47zM311 285h4
q0 -52 37 -82q39 -31 105 -31q96 0 176 80q81 81 96 186l6 39l-250 -47q-89 -15 -131 -51q-43 -37 -43 -94zM621 1305q0 -55 -37 -95q-36 -39 -92 -39t-95 39t-39 95q0 58 37 98q36 39 97 39q56 0 92 -39q37 -40 37 -98zM952 1305q0 -55 -37 -95q-36 -39 -92 -39
q-59 0 -98 39t-39 95q0 59 39 98t98 39q56 0 92 -39q37 -40 37 -98z" />
    <glyph glyph-name="aring" unicode="&#xe5;" horiz-adv-x="1120" 
d="M596 850l2 -4q-79 0 -135 -39q-59 -41 -86 -111h-250q47 171 178 269t307 98q206 0 314 -123t78 -326l-97 -616h-241l16 115q-56 -68 -131 -105t-166 -37q-143 0 -235 80q-93 81 -93 205q0 144 99 233t297 123l305 56q12 89 -31 135q-44 47 -131 47zM311 285h4
q0 -52 37 -82q39 -31 105 -31q96 0 176 80q81 81 96 186l6 39l-250 -47q-89 -15 -131 -51q-43 -37 -43 -94zM887 1362q0 -92 -68 -154q-67 -61 -162 -61t-159 61q-66 63 -66 154q0 90 66 156q63 63 159 63q99 0 162 -63q68 -65 68 -156zM575 1362h-2q0 -34 25 -59t59 -25
q37 0 62 25q24 24 24 59q0 37 -24 61q-25 25 -62 25q-32 0 -57 -25t-25 -61z" />
    <glyph glyph-name="ae" unicode="&#xe6;" horiz-adv-x="1898" 
d="M598 850l8 -2q-79 0 -135 -39q-59 -41 -86 -111h-250q46 163 178 265t301 102q112 0 197 -43q86 -42 133 -123q72 77 176 125q98 43 209 43q226 0 367 -141t141 -357q0 -31 -2 -49q-7 -65 -8 -69h-838q9 -119 86 -193t197 -74q89 0 153 37q65 37 105 111h260
q-63 -162 -205 -264q-141 -99 -321 -99q-141 0 -258 66q-114 64 -175 184q-56 -121 -167 -184q-117 -66 -252 -66q-154 0 -254 80q-99 79 -99 205q0 145 99 233q99 89 297 123l305 56q12 86 -31 135t-131 49zM1317 850h2q-97 0 -180 -59q-84 -59 -123 -158h575
q-20 99 -94 160q-69 57 -180 57zM319 287q0 -52 37 -82q39 -31 109 -31q96 0 172 64q77 65 92 153l12 86l-235 -43q-98 -16 -141 -53q-46 -37 -46 -94z" />
    <glyph glyph-name="ccedilla" unicode="&#xe7;" horiz-adv-x="1239" 
d="M612 211l-10 -6q106 0 182 55q77 56 117 156h256q-49 -189 -176 -310q-126 -117 -313 -135l-64 -80q99 -9 154 -61t55 -139q0 -108 -76 -178t-190 -70q-111 0 -182 59q-68 59 -68 152h180q3 -29 23 -43q24 -17 53 -17q34 0 59 25t25 59q0 36 -21 54t-55 18q-27 0 -45 -6
q-18 -7 -33 -25l-137 78l146 183q-190 35 -306 172t-116 325q0 249 166 418q167 170 415 170q213 0 357 -123q145 -124 166 -317h-250q-24 90 -99 147q-73 55 -170 55q-144 0 -235 -94q-92 -95 -92 -241q0 -121 80 -201t204 -80z" />
    <glyph glyph-name="egrave" unicode="&#xe8;" horiz-adv-x="1234" 
d="M602 186v2q90 0 154 37q63 37 104 111h260q-63 -162 -205 -264q-141 -99 -323 -99q-230 0 -375 142t-145 360q0 252 168 420q169 172 411 172q227 0 371 -141q143 -140 143 -357q0 -31 -2 -49q-7 -62 -8 -67h-836q9 -118 87 -193q77 -74 196 -74zM645 854h-2
q-95 0 -178 -59q-81 -62 -119 -158h574q-20 98 -95 160q-69 57 -180 57zM522 1169l-127 301h242l123 -301h-238z" />
    <glyph glyph-name="eacute" unicode="&#xe9;" horiz-adv-x="1234" 
d="M799 1167h-254l213 301h254zM602 186v2q90 0 154 37q63 37 104 111h260q-63 -162 -205 -264q-141 -99 -323 -99q-230 0 -375 142t-145 360q0 252 168 420q169 172 411 172q227 0 371 -141q143 -140 143 -357q0 -31 -2 -49q-7 -62 -8 -67h-836q9 -118 87 -193
q77 -74 196 -74zM645 854h-2q-95 0 -178 -59q-81 -62 -119 -158h574q-20 98 -95 160q-69 57 -180 57z" />
    <glyph glyph-name="ecircumflex" unicode="&#xea;" horiz-adv-x="1234" 
d="M315 1167l263 301h266l178 -301h-219l-105 172l-151 -172h-232zM602 186v2q90 0 154 37q63 37 104 111h260q-63 -162 -205 -264q-141 -99 -323 -99q-230 0 -375 142t-145 360q0 252 168 420q169 172 411 172q227 0 371 -141q143 -140 143 -357q0 -31 -2 -49
q-7 -62 -8 -67h-836q9 -118 87 -193q77 -74 196 -74zM645 854h-2q-95 0 -178 -59q-81 -62 -119 -158h574q-20 98 -95 160q-69 57 -180 57z" />
    <glyph glyph-name="edieresis" unicode="&#xeb;" horiz-adv-x="1234" 
d="M653 1309q0 -55 -37 -95q-35 -38 -92 -38q-56 0 -94 38q-39 39 -39 95q0 58 37 98q36 39 96 39q56 0 92 -39q37 -40 37 -98zM985 1309q0 -55 -37 -95q-35 -38 -92 -38q-60 0 -98 38q-39 39 -39 95q0 59 39 98t98 39q56 0 92 -39q37 -40 37 -98zM602 186v2q90 0 154 37
q63 37 104 111h260q-63 -162 -205 -264q-141 -99 -323 -99q-230 0 -375 142t-145 360q0 252 168 420q169 172 411 172q227 0 371 -141q143 -140 143 -357q0 -31 -2 -49q-7 -62 -8 -67h-836q9 -118 87 -193q77 -74 196 -74zM645 854h-2q-95 0 -178 -59q-81 -62 -119 -158h574
q-20 98 -95 160q-69 57 -180 57z" />
    <glyph glyph-name="igrave" unicode="&#xec;" horiz-adv-x="555" 
d="M334 0h-258l147 1038h256zM223 1167l-127 301h242l123 -301h-238z" />
    <glyph glyph-name="iacute" unicode="&#xed;" horiz-adv-x="555" 
d="M500 1167h-254l213 301h254zM334 0h-258l147 1038h256z" />
    <glyph glyph-name="icircumflex" unicode="&#xee;" horiz-adv-x="555" 
d="M14 1167l262 301h267l178 -301h-219l-105 172l-151 -172h-232zM334 0h-258l147 1038h256z" />
    <glyph glyph-name="idieresis" unicode="&#xef;" horiz-adv-x="555" 
d="M352 1309q0 -55 -37 -95q-35 -38 -92 -38q-56 0 -94 38q-39 39 -39 95q0 58 37 98q36 39 96 39q56 0 92 -39q37 -40 37 -98zM684 1309q0 -55 -37 -95q-35 -38 -92 -38q-60 0 -98 38q-39 39 -39 95q0 59 39 98t98 39q56 0 92 -39q37 -40 37 -98zM334 0h-258l147 1038h256z
" />
    <glyph glyph-name="eth" unicode="&#xf0;" horiz-adv-x="1280" 
d="M571 1147l21 147l147 49q-52 61 -75 84q-44 43 -99 93h269q23 -18 61 -56l55 -55l230 82l-21 -145l-125 -46q87 -121 131 -276q43 -148 43 -344q0 -300 -174 -498q-176 -200 -436 -200q-226 0 -377 145q-149 143 -149 356q0 223 164 387t387 164q98 0 182 -37
q88 -40 139 -100q-10 90 -41 166q-39 97 -82 166zM328 492l-2 2q0 -123 80 -203t208 -80q139 0 232 96q92 95 92 234q0 120 -82 196q-84 78 -209 78q-136 0 -227 -94q-92 -95 -92 -229z" />
    <glyph glyph-name="ntilde" unicode="&#xf1;" 
d="M330 0l-256 -2l147 1038h244l-16 -112q58 67 139 104q78 37 168 37q183 0 282 -123q99 -126 72 -311l-86 -631h-258l82 592q15 116 -33 176q-49 61 -156 61q-90 0 -161 -59q-68 -59 -80 -147zM778 1386h-6q30 -24 41 -30q12 -6 23 -6q23 0 36 22q13 27 21 74h170
q-9 -139 -62 -207t-147 -68q-37 0 -74 13q-27 8 -75 53q-30 30 -43 35q-15 6 -31 6q-31 0 -47 -25q-18 -32 -23 -75h-172q9 139 66 208q57 72 159 72q46 0 78 -14q34 -13 86 -58z" />
    <glyph glyph-name="ograve" unicode="&#xf2;" horiz-adv-x="1265" 
d="M1196 563l-6 -6q0 -248 -170 -418t-424 -170q-233 0 -381 142q-147 141 -147 360q0 244 170 420q169 172 421 172q235 0 385 -141q152 -143 152 -359zM322 485v-4q0 -121 79 -200q80 -80 205 -80q138 0 234 96q94 94 94 238q0 119 -80 202q-79 82 -199 82
q-145 0 -239 -94t-94 -240zM545 1157l-127 301h241l123 -301h-237z" />
    <glyph glyph-name="oacute" unicode="&#xf3;" horiz-adv-x="1265" 
d="M825 1167h-254l213 301h254zM1196 563l-6 -6q0 -248 -170 -418t-424 -170q-233 0 -381 142q-147 141 -147 360q0 244 170 420q169 172 421 172q235 0 385 -141q152 -143 152 -359zM322 485v-4q0 -121 79 -200q80 -80 205 -80q138 0 234 96q94 94 94 238q0 119 -80 202
q-79 82 -199 82q-145 0 -239 -94t-94 -240z" />
    <glyph glyph-name="ocircumflex" unicode="&#xf4;" horiz-adv-x="1265" 
d="M342 1167l262 301h266l179 -301h-220l-104 172l-152 -172h-231zM1196 563l-6 -6q0 -248 -170 -418t-424 -170q-233 0 -381 142q-147 141 -147 360q0 244 170 420q169 172 421 172q235 0 385 -141q152 -143 152 -359zM322 485v-4q0 -121 79 -200q80 -80 205 -80
q138 0 234 96q94 94 94 238q0 119 -80 202q-79 82 -199 82q-145 0 -239 -94t-94 -240z" />
    <glyph glyph-name="otilde" unicode="&#xf5;" horiz-adv-x="1265" 
d="M1196 563l-6 -6q0 -248 -170 -418t-424 -170q-233 0 -381 142q-147 141 -147 360q0 244 170 420q169 172 421 172q235 0 385 -141q152 -143 152 -359zM322 485v-4q0 -121 79 -200q80 -80 205 -80q138 0 234 96q94 94 94 238q0 119 -80 202q-79 82 -199 82
q-145 0 -239 -94t-94 -240zM764 1378h-6q30 -24 41 -30q14 -7 22 -7q24 0 37 23q13 27 21 74h170q-9 -139 -62 -207t-147 -68q-37 0 -74 13q-28 9 -76 53q-30 30 -43 35q-15 6 -31 6q-31 0 -47 -25q-16 -29 -22 -76h-172q9 142 65 209q57 72 160 72q46 0 78 -14
q34 -13 86 -58z" />
    <glyph glyph-name="odieresis" unicode="&#xf6;" horiz-adv-x="1265" 
d="M680 1309q0 -55 -37 -95q-35 -38 -92 -38q-56 0 -94 38q-39 39 -39 95q0 58 37 98q36 39 96 39q56 0 92 -39q37 -40 37 -98zM1012 1309q0 -55 -37 -95q-35 -38 -92 -38q-61 0 -99 38q-39 39 -39 95q0 59 39 98t99 39q56 0 92 -39q37 -40 37 -98zM1196 563l-6 -6
q0 -248 -170 -418t-424 -170q-233 0 -381 142q-147 141 -147 360q0 244 170 420q169 172 421 172q235 0 385 -141q152 -143 152 -359zM322 485v-4q0 -121 79 -200q80 -80 205 -80q138 0 234 96q94 94 94 238q0 119 -80 202q-79 82 -199 82q-145 0 -239 -94t-94 -240z" />
    <glyph glyph-name="divide" unicode="&#xf7;" horiz-adv-x="1167" 
d="M772 1122q0 -65 -45 -110t-117 -45q-68 0 -110 45q-43 46 -43 110q0 67 43 113q42 45 110 45q72 0 117 -45t45 -113zM141 614v205h938v-205h-938zM772 307q0 -65 -45 -110t-117 -45q-68 0 -110 45q-43 46 -43 110q0 67 43 113q42 45 110 45q72 0 117 -45t45 -113z" />
    <glyph glyph-name="oslash" unicode="&#xf8;" horiz-adv-x="1265" 
d="M367 18l-68 -92h-233l145 189q-69 69 -107 161q-36 88 -36 195q0 244 170 420q169 172 421 172q65 0 123 -12q54 -11 115 -33l66 86h233l-143 -191q68 -68 106 -161q37 -90 37 -193q0 -248 -170 -418t-424 -170q-60 0 -123 13q-40 8 -112 34zM655 825l-2 -2
q-143 0 -239 -96q-95 -95 -95 -244q0 -43 13 -90q11 -40 41 -78l379 494q-21 9 -47 12q-32 4 -50 4zM606 199l2 -4q142 0 236 98q94 94 94 242q0 52 -14 90q-12 38 -43 84l-377 -494q24 -9 49 -12q32 -4 53 -4z" />
    <glyph glyph-name="ugrave" unicode="&#xf9;" horiz-adv-x="1210" 
d="M881 1038l254 -2l-148 -1038h-242l17 111q-56 -67 -135 -103q-81 -35 -160 -35q-180 0 -279 123q-97 120 -69 312l88 630h258l-84 -590q-15 -111 33 -174t147 -63q91 0 156 59q62 62 76 160zM537 1165l-127 301h241l123 -301h-237z" />
    <glyph glyph-name="uacute" unicode="&#xfa;" horiz-adv-x="1210" 
d="M815 1167h-254l213 301h254zM881 1038l254 -2l-148 -1038h-242l17 111q-56 -67 -135 -103q-81 -35 -160 -35q-180 0 -279 123q-97 120 -69 312l88 630h258l-84 -590q-15 -111 33 -174t147 -63q91 0 156 59q62 62 76 160z" />
    <glyph glyph-name="ucircumflex" unicode="&#xfb;" horiz-adv-x="1210" 
d="M332 1167l262 301h266l178 -301h-219l-104 172l-152 -172h-231zM881 1038l254 -2l-148 -1038h-242l17 111q-56 -67 -135 -103q-81 -35 -160 -35q-180 0 -279 123q-97 120 -69 312l88 630h258l-84 -590q-15 -111 33 -174t147 -63q91 0 156 59q62 62 76 160z" />
    <glyph glyph-name="udieresis" unicode="&#xfc;" horiz-adv-x="1210" 
d="M668 1309q0 -55 -37 -95q-35 -38 -92 -38t-95 38t-38 95q0 59 36 98t97 39q56 0 92 -39q37 -40 37 -98zM999 1309q0 -56 -36 -95q-35 -38 -93 -38q-60 0 -98 38q-39 39 -39 95q0 59 39 98t98 39q57 0 93 -39t36 -98zM881 1038l254 -2l-148 -1038h-242l17 111
q-56 -67 -135 -103q-81 -35 -160 -35q-180 0 -279 123q-97 120 -69 312l88 630h258l-84 -590q-15 -111 33 -174t147 -63q91 0 156 59q62 62 76 160z" />
    <glyph glyph-name="yacute" unicode="&#xfd;" horiz-adv-x="1114" 
d="M887 1038h270l-747 -1472h-265l209 420l-254 1052h267l159 -721zM774 1167h-254l213 301h254z" />
    <glyph glyph-name="thorn" unicode="&#xfe;" horiz-adv-x="1351" 
d="M1278 580l-4 2q0 -266 -156 -435q-156 -172 -395 -172q-122 0 -217 50q-97 51 -154 143l-84 -600h-258l275 1952h258l-84 -598q71 74 155 108q87 37 187 37q213 0 344 -137q133 -139 133 -350zM1004 557v-6q0 119 -80 199q-79 79 -201 79q-140 0 -236 -96
q-94 -94 -94 -239q0 -125 80 -205t207 -80q140 0 231 98q93 101 93 250z" />
    <glyph glyph-name="ydieresis" unicode="&#xff;" horiz-adv-x="1114" 
d="M887 1038h270l-747 -1472h-265l209 420l-254 1052h267l159 -721zM627 1309q0 -55 -37 -95q-35 -38 -92 -38t-95 38t-38 95q0 59 36 98t97 39q56 0 92 -39q37 -40 37 -98zM958 1309q0 -56 -36 -95q-35 -38 -93 -38q-60 0 -98 38q-39 39 -39 95q0 59 39 98t98 39
q57 0 93 -39t36 -98z" />
    <glyph glyph-name="Amacron" unicode="&#x100;" horiz-adv-x="1415" 
d="M690 1440h287l330 -1440h-281l-61 301h-580l-147 -301h-283zM918 526l-125 600l-295 -600h420zM1139 1606h-576l25 174h575z" />
    <glyph glyph-name="amacron" unicode="&#x101;" horiz-adv-x="1120" 
d="M596 850l2 -4q-79 0 -135 -39q-59 -41 -86 -111h-250q47 171 178 269t307 98q206 0 314 -123t78 -326l-97 -616h-241l16 115q-56 -68 -131 -105t-166 -37q-143 0 -235 80q-93 81 -93 205q0 144 99 233t297 123l305 56q12 89 -31 135q-44 47 -131 47zM311 285h4
q0 -52 37 -82q39 -31 105 -31q96 0 176 80q81 81 96 186l6 39l-250 -47q-89 -15 -131 -51q-43 -37 -43 -94zM930 1208h-576l25 174h575z" />
    <glyph glyph-name="Abreve" unicode="&#x102;" horiz-adv-x="1415" 
d="M690 1440h287l330 -1440h-281l-61 301h-580l-147 -301h-283zM918 526l-125 600l-295 -600h420zM879 1540l-5 -2q-141 0 -229 88q-92 89 -92 221h188q0 -64 37 -104q36 -39 99 -39q60 0 98 41q37 40 37 104h188q0 -132 -92 -221q-88 -88 -229 -88z" />
    <glyph glyph-name="abreve" unicode="&#x103;" horiz-adv-x="1120" 
d="M596 850l2 -4q-79 0 -135 -39q-59 -41 -86 -111h-250q47 171 178 269t307 98q206 0 314 -123t78 -326l-97 -616h-241l16 115q-56 -68 -131 -105t-166 -37q-143 0 -235 80q-93 81 -93 205q0 144 99 233t297 123l305 56q12 89 -31 135q-44 47 -131 47zM311 285h4
q0 -52 37 -82q39 -31 105 -31q96 0 176 80q81 81 96 186l6 39l-250 -47q-89 -15 -131 -51q-43 -37 -43 -94zM657 1143l-4 -2q-141 0 -229 88q-92 89 -92 221h188q0 -64 37 -104q36 -39 98 -39q61 0 99 41q37 40 37 104h188q0 -132 -92 -221q-88 -88 -230 -88z" />
    <glyph glyph-name="Aogonek" unicode="&#x104;" horiz-adv-x="1415" 
d="M690 1440l285 -10l330 -1440h-80q-126 -117 -178 -185q-50 -65 -50 -110q0 -33 23 -53q22 -19 61 -19q21 0 45 6l50 17l-23 -168q-31 -17 -66 -25q-31 -8 -75 -8q-101 0 -166 53q-64 52 -64 140q0 81 43 151q44 71 201 213l-61 299h-580l-147 -301h-283zM915 516
l-124 600l-295 -600h419z" />
    <glyph glyph-name="aogonek" unicode="&#x105;" horiz-adv-x="1120" 
d="M596 850v-14q-79 0 -135 -39q-59 -41 -86 -111h-250q46 169 178 268t307 99q206 0 314 -123q107 -122 77 -326l-96 -616h-41q-126 -117 -178 -185q-49 -64 -49 -110q0 -34 22 -53t62 -19q21 0 45 6l49 17l-22 -168q-31 -17 -66 -25q-31 -8 -76 -8q-101 0 -166 53
q-63 51 -63 139t45 156q44 73 199 209l16 113q-56 -68 -131 -105t-166 -37q-143 0 -235 80q-93 81 -93 205q0 144 99 233t297 123l305 56q12 89 -31 135q-44 47 -131 47zM309 274h4q0 -51 37 -81q39 -31 105 -31q96 0 176 80q81 81 96 186l6 39l-250 -47q-89 -15 -131 -51
q-43 -37 -43 -95z" />
    <glyph glyph-name="Cacute" unicode="&#x106;" horiz-adv-x="1650" 
d="M1309 584l286 -4q-71 -277 -282 -443t-492 -166q-312 0 -512 197q-198 195 -198 491q0 159 59 310q60 147 170 260q115 115 258 176q146 61 309 61q286 0 477 -161q194 -164 228 -424h-287q-38 148 -154 239q-118 92 -276 92q-210 0 -358 -157t-148 -381q0 -194 123 -320
q122 -125 319 -125q160 0 289 97q128 96 189 258zM1051 1559h-254l213 301h254z" />
    <glyph glyph-name="cacute" unicode="&#x107;" horiz-adv-x="1239" 
d="M809 1167h-254l213 301h254zM612 211l-4 2q107 0 183 55t116 156h256q-53 -218 -200 -332q-147 -117 -367 -117q-225 0 -377 146q-149 143 -149 356q0 249 166 418q167 170 415 170q213 0 357 -123q145 -124 166 -317h-250q-24 90 -99 147q-73 55 -170 55
q-144 0 -235 -94q-92 -95 -92 -241q0 -121 80 -201t204 -80z" />
    <glyph glyph-name="Ccircumflex" unicode="&#x108;" horiz-adv-x="1650" 
d="M1309 584l286 -4q-71 -277 -282 -443t-492 -166q-312 0 -512 197q-198 195 -198 491q0 159 59 310q60 147 170 260q115 115 258 176q146 61 309 61q286 0 477 -161q194 -164 228 -424h-287q-38 148 -154 239q-118 92 -276 92q-210 0 -358 -157t-148 -381q0 -194 123 -320
q122 -125 319 -125q160 0 289 97q128 96 189 258zM573 1559l263 301h266l178 -301h-219l-105 172l-151 -172h-232z" />
    <glyph glyph-name="ccircumflex" unicode="&#x109;" horiz-adv-x="1239" 
d="M326 1167l262 301h266l178 -301h-219l-104 172l-152 -172h-231zM612 211l-4 2q107 0 183 55t116 156h256q-53 -218 -200 -332q-147 -117 -367 -117q-225 0 -377 146q-149 143 -149 356q0 249 166 418q167 170 415 170q213 0 357 -123q145 -124 166 -317h-250
q-24 90 -99 147q-73 55 -170 55q-144 0 -235 -94q-92 -95 -92 -241q0 -121 80 -201t204 -80z" />
    <glyph glyph-name="Cdotaccent" unicode="&#x10a;" horiz-adv-x="1650" 
d="M1085 1714h2q0 -61 -43 -104t-104 -43q-59 0 -102 43t-43 104q0 60 43 103t102 43t102 -43t43 -103zM1311 584l286 -4q-71 -277 -282 -443t-492 -166q-312 0 -512 197q-198 195 -198 491q0 159 59 310q60 147 170 260q115 115 258 176q146 61 309 61q286 0 477 -161
q194 -164 228 -424h-287q-38 149 -153 239q-118 92 -277 92q-210 0 -358 -157t-148 -381q0 -194 123 -320q122 -125 320 -125q159 0 288 97q128 96 189 258z" />
    <glyph glyph-name="cdotaccent" unicode="&#x10b;" horiz-adv-x="1239" 
d="M612 211l-4 2q107 0 183 55t116 156h256q-53 -218 -200 -332q-147 -117 -367 -117q-225 0 -377 146q-149 143 -149 356q0 249 166 418q167 170 415 170q213 0 357 -123q145 -124 166 -317h-250q-24 90 -99 147q-73 55 -170 55q-144 0 -235 -94q-92 -95 -92 -241
q0 -121 80 -201t204 -80zM836 1323h2q0 -61 -43 -104t-105 -43q-59 0 -102 43t-43 104q0 59 43 102t102 43q60 0 103 -43t43 -102z" />
    <glyph glyph-name="Ccaron" unicode="&#x10c;" horiz-adv-x="1650" 
d="M1309 584l286 -4q-71 -277 -282 -443t-492 -166q-312 0 -512 197q-198 195 -198 491q0 159 59 310q60 147 170 260q115 115 258 176q146 61 309 61q286 0 477 -161q194 -164 228 -424h-287q-38 148 -154 239q-118 92 -276 92q-210 0 -358 -157t-148 -381q0 -194 123 -320
q122 -125 319 -125q160 0 289 97q128 96 189 258zM1327 1860l-262 -301h-266l-178 301h219l104 -172l152 172h231z" />
    <glyph glyph-name="ccaron" unicode="&#x10d;" horiz-adv-x="1239" 
d="M1081 1468l-262 -301h-266l-178 301h219l104 -172l152 172h231zM612 211l-4 2q107 0 183 55t116 156h256q-53 -218 -200 -332q-147 -117 -367 -117q-225 0 -377 146q-149 143 -149 356q0 249 166 418q167 170 415 170q213 0 357 -123q145 -124 166 -317h-250
q-24 90 -99 147q-73 55 -170 55q-144 0 -235 -94q-92 -95 -92 -241q0 -121 80 -201t204 -80z" />
    <glyph glyph-name="Dcaron" unicode="&#x10e;" horiz-adv-x="1562" 
d="M647 0l-555 -4l201 1440h528q289 0 484 -183q194 -182 194 -460q0 -365 -235 -578q-238 -215 -617 -215zM528 1182l-133 -936h275q244 0 397 141q154 142 154 381q0 187 -123 301q-119 113 -322 113h-248zM1262 1855l-263 -301h-266l-178 301h219l105 -172l151 172h232z
" />
    <glyph glyph-name="dcaron" unicode="&#x10f;" horiz-adv-x="1501" 
d="M1761 1307l-157 -275h-154l133 234q-41 14 -67 51q-25 39 -25 82q0 61 43 104t106 43q64 0 107 -43t43 -104q0 -22 -6 -43q-2 -15 -23 -49zM1337 1518l-217 -1520h-241l18 135q-70 -79 -162 -121q-96 -41 -196 -41q-212 0 -344 138t-132 350q0 256 158 434
q156 172 397 172q126 0 220 -49q94 -50 153 -144l90 646h256zM334 481v4q0 -118 80 -198t200 -80q140 0 236 96q94 94 94 240q0 127 -80 207q-79 79 -207 79q-141 0 -231 -100q-92 -103 -92 -248z" />
    <glyph glyph-name="Dcroat" unicode="&#x110;" horiz-adv-x="1601" 
d="M686 0l-555 -4l86 618h-168l27 197h168l88 625h528q288 0 483 -183t195 -460q0 -365 -235 -578q-238 -215 -617 -215zM485 614l-51 -368h275q244 0 397 141q154 142 154 381q0 187 -123 301q-119 113 -322 113h-248l-53 -371h348l-26 -197h-351z" />
    <glyph glyph-name="dcroat" unicode="&#x111;" horiz-adv-x="1349" 
d="M1296 1186l-170 -1188h-241l18 135q-70 -79 -162 -121q-96 -41 -196 -41q-212 0 -344 138q-131 137 -131 350q0 257 157 434q156 172 398 172q125 0 219 -49q94 -50 153 -144l43 314h-391l27 188h391l20 144h256l-20 -144h145l-26 -188h-146zM340 481v4q0 -118 80 -198
t201 -80q139 0 235 96q94 94 94 240q0 127 -80 207q-79 79 -206 79q-142 0 -232 -100q-92 -103 -92 -248z" />
    <glyph glyph-name="Emacron" unicode="&#x112;" horiz-adv-x="1191" 
d="M1012 0h-918l203 1440h907l-37 -246h-635l-51 -346h590l-33 -234h-587l-54 -368h647zM1055 1606h-576l25 174h575z" />
    <glyph glyph-name="emacron" unicode="&#x113;" horiz-adv-x="1234" 
d="M602 186v2q90 0 154 37q63 37 104 111h260q-63 -162 -205 -264q-141 -99 -323 -99q-230 0 -375 142t-145 360q0 252 168 420q169 172 411 172q227 0 371 -141q143 -140 143 -357q0 -31 -2 -49q-7 -62 -8 -67h-836q9 -118 87 -193q77 -74 196 -74zM645 854h-2
q-95 0 -178 -59q-81 -62 -119 -158h574q-20 98 -95 160q-69 57 -180 57zM961 1214h-576l25 175h575z" />
    <glyph glyph-name="Ebreve" unicode="&#x114;" horiz-adv-x="1191" 
d="M1012 0h-918l203 1440h907l-37 -246h-635l-51 -346h590l-33 -234h-587l-54 -368h647zM795 1540l-4 -2q-142 0 -230 88q-92 89 -92 221h188q0 -64 37 -104q36 -39 99 -39q60 0 98 41q37 40 37 104h188q0 -132 -92 -221q-88 -88 -229 -88z" />
    <glyph glyph-name="ebreve" unicode="&#x115;" horiz-adv-x="1234" 
d="M602 186v2q90 0 154 37q63 37 104 111h260q-63 -162 -205 -264q-141 -99 -323 -99q-230 0 -375 142t-145 360q0 252 168 420q169 172 411 172q227 0 371 -141q143 -140 143 -357q0 -31 -2 -49q-7 -62 -8 -67h-836q9 -118 87 -193q77 -74 196 -74zM645 854h-2
q-95 0 -178 -59q-81 -62 -119 -158h574q-20 98 -95 160q-69 57 -180 57zM688 1149l-4 -2q-141 0 -229 88q-93 90 -93 221h189q0 -64 37 -104q36 -39 98 -39q60 0 98 41q37 40 37 104h189q0 -132 -92 -221q-88 -88 -230 -88z" />
    <glyph glyph-name="Edotaccent" unicode="&#x116;" horiz-adv-x="1191" 
d="M928 1714h2q0 -61 -43 -104t-105 -43q-59 0 -102 43t-43 104q0 60 43 103t102 43q60 0 103 -43t43 -103zM1014 0h-918l203 1440h907l-37 -246h-634l-52 -346h590l-33 -234h-587l-54 -368h648z" />
    <glyph glyph-name="edotaccent" unicode="&#x117;" horiz-adv-x="1234" 
d="M602 186v2q90 0 154 37q63 37 104 111h260q-63 -162 -205 -264q-141 -99 -323 -99q-230 0 -375 142t-145 360q0 252 168 420q169 172 411 172q227 0 371 -141q143 -140 143 -357q0 -31 -2 -49q-7 -62 -8 -67h-836q9 -118 87 -193q77 -74 196 -74zM645 854h-2
q-95 0 -178 -59q-81 -62 -119 -158h574q-20 98 -95 160q-69 57 -180 57zM825 1323h2q0 -61 -43 -104t-104 -43q-59 0 -102 43t-43 104q0 59 43 102t102 43t102 -43t43 -102z" />
    <glyph glyph-name="Eogonek" unicode="&#x118;" horiz-adv-x="1191" 
d="M760 0l-668 -8l203 1440h907l-37 -246h-635l-51 -346h590l-33 -234h-587l-54 -368h647l-32 -246h-49q-129 -120 -179 -185q-49 -64 -49 -110q0 -33 23 -53q22 -19 61 -19q21 0 45 6l49 17l-22 -168q-31 -17 -66 -25q-31 -8 -75 -8q-101 0 -166 53q-64 52 -64 140
q0 81 43 151q48 73 199 209z" />
    <glyph glyph-name="eogonek" unicode="&#x119;" horiz-adv-x="1234" 
d="M862 334l248 -6q-31 -88 -88 -154q-51 -62 -191 -174q-96 -72 -149 -154q-49 -76 -49 -149q0 -35 24 -53q25 -19 64 -19q23 0 47 6q22 5 47 19l-24 -172q-41 -21 -70 -27q-31 -8 -78 -8q-96 0 -160 55q-63 54 -63 142q0 79 43 155q43 75 151 180h-16h-18q-223 0 -365 142
q-141 141 -141 358q0 252 168 420q169 172 411 172q227 0 371 -141q143 -140 143 -357q0 -31 -2 -49q-7 -62 -8 -67h-835q9 -119 86 -193t196 -74q90 0 154 37q63 37 104 111zM633 846h-2q-93 0 -178 -60q-81 -62 -119 -157h573q-20 98 -94 159q-70 58 -180 58z" />
    <glyph glyph-name="Ecaron" unicode="&#x11a;" horiz-adv-x="1191" 
d="M1012 0h-918l203 1440h907l-37 -246h-635l-51 -346h590l-33 -234h-587l-54 -368h647zM1169 1864l-262 -301h-266l-178 301h219l104 -172l152 172h231z" />
    <glyph glyph-name="ecaron" unicode="&#x11b;" horiz-adv-x="1234" 
d="M1069 1468l-262 -301h-266l-179 301h220l104 -172l152 172h231zM602 186v2q90 0 154 37q63 37 104 111h260q-63 -162 -205 -264q-141 -99 -323 -99q-230 0 -375 142t-145 360q0 252 168 420q169 172 411 172q227 0 371 -141q143 -140 143 -357q0 -31 -2 -49
q-7 -62 -8 -67h-836q9 -118 87 -193q77 -74 196 -74zM645 854h-2q-95 0 -178 -59q-81 -62 -119 -158h574q-20 98 -95 160q-69 57 -180 57z" />
    <glyph glyph-name="Gcircumflex" unicode="&#x11c;" horiz-adv-x="1654" 
d="M565 1563l262 301h267l178 -301h-219l-105 172l-151 -172h-232zM1569 743l-101 -741h-225l27 191q-81 -105 -209 -162q-124 -56 -270 -56q-304 0 -494 193q-191 194 -191 487q0 341 228 578t563 237q266 0 455 -145q187 -144 231 -379h-293q-47 126 -149 197
q-109 71 -248 71q-211 0 -358 -159q-148 -160 -148 -385q0 -205 123 -328t336 -123q154 0 272 80q116 79 172 231h-461l29 213h711z" />
    <glyph glyph-name="gcircumflex" unicode="&#x11d;" horiz-adv-x="1290" 
d="M330 1167l262 301h266l178 -301h-219l-104 172l-152 -172h-231zM10 -47h248q3 -96 78 -150q73 -55 196 -55q111 0 189 66q75 63 90 172l27 186q-60 -60 -142 -94q-73 -33 -168 -33q-195 0 -321 129q-125 125 -125 324q0 244 147 403q148 160 367 160q121 0 209 -49
q93 -53 145 -138l23 160h244l-148 -1040q-30 -212 -172 -336q-141 -123 -360 -123q-230 0 -377 117q-147 119 -150 301zM604 272v-6q125 0 209 90t84 215q0 111 -74 185q-73 73 -190 73q-121 0 -203 -88t-82 -215q0 -112 72 -184q70 -70 184 -70z" />
    <glyph glyph-name="Gbreve" unicode="&#x11e;" horiz-adv-x="1654" 
d="M1569 743l-101 -741h-225l27 191q-81 -105 -209 -162q-124 -56 -270 -56q-304 0 -494 193q-191 194 -191 487q0 341 228 578t563 237q266 0 455 -145q187 -144 231 -379h-293q-47 126 -149 197q-109 71 -248 71q-211 0 -358 -159q-148 -160 -148 -385q0 -205 123 -328
t336 -123q154 0 272 80q116 79 172 231h-461l29 213h711zM946 1542l-4 -2q-141 0 -229 88q-92 89 -92 221h188q0 -64 37 -104q36 -39 98 -39q60 0 98 41q37 40 37 104h189q0 -132 -92 -221q-88 -88 -230 -88z" />
    <glyph glyph-name="gbreve" unicode="&#x11f;" horiz-adv-x="1290" 
d="M10 -47h248q3 -96 78 -150q73 -55 196 -55q111 0 189 66q75 63 90 172l27 186q-60 -60 -142 -94q-73 -33 -168 -33q-195 0 -321 129q-125 125 -125 324q0 244 147 403q148 160 367 160q121 0 209 -49q93 -53 145 -138l23 160h244l-148 -1040q-30 -212 -172 -336
q-141 -123 -360 -123q-230 0 -377 117q-147 119 -150 301zM604 272v-6q125 0 209 90t84 215q0 111 -74 185q-73 73 -190 73q-121 0 -203 -88t-82 -215q0 -112 72 -184q70 -70 184 -70zM700 1141l-4 -2q-141 0 -229 88q-92 89 -92 221h188q0 -65 37 -105q35 -38 98 -38
q61 0 99 41q37 40 37 104h188q0 -132 -92 -221q-88 -88 -230 -88z" />
    <glyph glyph-name="Gdotaccent" unicode="&#x120;" horiz-adv-x="1654" 
d="M1075 1714h2q0 -61 -43 -104t-104 -43q-60 0 -103 43t-43 104q0 60 43 103t103 43q59 0 102 -43t43 -103zM1571 743l-101 -741h-225l27 191q-81 -105 -209 -162q-124 -56 -270 -56q-304 0 -494 193t-190 487q0 342 227 578q228 237 563 237q266 0 455 -145
q187 -144 231 -379h-293q-47 126 -149 197q-109 71 -248 71q-211 0 -358 -159q-148 -160 -148 -385q0 -205 123 -328t336 -123q154 0 272 80q116 79 172 231h-461l29 213h711z" />
    <glyph glyph-name="gdotaccent" unicode="&#x121;" horiz-adv-x="1290" 
d="M10 -47h248q3 -96 78 -150q73 -55 196 -55q111 0 189 66q75 63 90 172l27 186q-60 -60 -142 -94q-73 -33 -168 -33q-195 0 -321 129q-125 125 -125 324q0 244 147 403q148 160 367 160q121 0 209 -49q93 -53 145 -138l23 160h244l-148 -1040q-30 -212 -172 -336
q-141 -123 -360 -123q-230 0 -377 117q-147 119 -150 301zM604 272v-6q125 0 209 90t84 215q0 111 -74 185q-73 73 -190 73q-121 0 -203 -88t-82 -215q0 -112 72 -184q70 -70 184 -70zM840 1315h2q0 -62 -43 -105t-105 -43q-59 0 -102 43t-43 105q0 59 43 102t102 43
q60 0 103 -43t43 -102z" />
    <glyph glyph-name="uni0122" unicode="&#x122;" horiz-adv-x="1654" 
d="M877 -332l-107 -241h-137l84 180q-43 16 -66 49q-24 34 -24 78q0 59 37 96t96 37t96 -37t37 -94q0 -3 -4 -31q-3 -17 -12 -37zM1569 735l-101 -741h-225l27 190q-79 -104 -209 -161q-124 -56 -270 -56q-304 0 -494 193q-191 194 -191 487q0 341 228 578t563 237
q266 0 455 -145q187 -144 231 -379h-293q-47 126 -149 197q-109 71 -248 71q-211 0 -358 -159q-148 -160 -148 -385q0 -205 123 -328t336 -123q154 0 272 80q116 79 172 231h-461l29 213h711z" />
    <glyph glyph-name="uni0123" unicode="&#x123;" horiz-adv-x="1290" 
d="M586 1395l129 213h139l-113 -185q35 -13 60 -45q22 -36 22 -71q0 -58 -37 -95q-36 -36 -96 -36t-96 36q-37 37 -37 97q0 19 6 37zM6 -49h248q3 -96 78 -150q73 -55 196 -55q111 0 189 66q75 63 90 172l27 186q-60 -60 -142 -94q-73 -33 -168 -33q-195 0 -321 129
q-125 125 -125 324q0 244 147 403q148 160 367 160q121 0 209 -49q93 -53 145 -138l23 160h243l-147 -1040q-30 -212 -172 -336q-141 -123 -361 -123q-229 0 -376 117q-147 119 -150 301zM600 270v-6q125 0 209 90t84 215q0 111 -74 185q-73 73 -190 73q-121 0 -203 -88
t-82 -215q0 -112 72 -184q70 -70 184 -70z" />
    <glyph glyph-name="Hcircumflex" unicode="&#x124;" horiz-adv-x="1460" 
d="M362 0h-268l203 1440h268l-80 -578h582l80 578h268l-203 -1440h-268l86 608h-581zM520 1563l262 301h267l178 -301h-219l-105 172l-151 -172h-232z" />
    <glyph glyph-name="hcircumflex" unicode="&#x125;" 
d="M80 1647l262 301h266l178 -301h-219l-104 172l-152 -172h-231zM332 0l-258 -2l213 1518h258l-82 -574q61 61 135 90q79 31 156 31q183 0 282 -123q99 -126 72 -311l-86 -631h-258l82 592q15 116 -33 176q-49 61 -156 61q-94 0 -157 -57q-68 -59 -80 -141z" />
    <glyph glyph-name="Hbar" unicode="&#x126;" horiz-adv-x="1533" 
d="M399 0h-268l145 1030h-159l26 193h160l31 217h268l-31 -217h582l31 217h268l-31 -217h160l-27 -193h-159l-146 -1030h-268l86 608h-582zM545 1030l-23 -168h582l22 168h-581z" />
    <glyph glyph-name="hbar" unicode="&#x127;" 
d="M332 0l-260 -2l166 1186h-144l27 188h143l21 144h258l-21 -144h391l-26 -188h-391l-35 -242q61 61 135 90q79 31 156 31q185 0 284 -123q99 -126 72 -311l-86 -631h-258l82 592q15 116 -33 176q-49 61 -156 61q-94 0 -157 -57q-68 -59 -80 -141z" />
    <glyph glyph-name="Itilde" unicode="&#x128;" horiz-adv-x="610" 
d="M362 0h-268l203 1440h268zM506 1780h-6q36 -28 41 -31q12 -6 22 -6q24 0 37 22q13 27 21 74h170q-9 -139 -62 -207q-52 -67 -147 -67q-40 0 -74 12q-28 9 -76 53q-30 30 -43 35q-15 6 -31 6q-32 0 -47 -24q-16 -29 -22 -76h-172q9 142 65 209q56 71 160 71q46 0 78 -14
q36 -13 86 -57z" />
    <glyph glyph-name="itilde" unicode="&#x129;" horiz-adv-x="555" 
d="M334 0h-258l147 1038h256zM442 1389h-6q36 -28 41 -31q12 -6 23 -6q24 0 37 22q12 24 20 74h170q-9 -140 -61 -207t-148 -67q-40 0 -74 12q-27 8 -75 53q-30 30 -43 35q-15 6 -31 6q-31 0 -47 -25q-18 -32 -23 -75h-172q9 141 66 209q56 71 160 71q45 0 77 -14
q36 -13 86 -57z" />
    <glyph glyph-name="Imacron" unicode="&#x12a;" horiz-adv-x="610" 
d="M362 0h-268l203 1440h268zM735 1606h-575l24 174h576z" />
    <glyph glyph-name="imacron" unicode="&#x12b;" horiz-adv-x="555" 
d="M334 0h-258l147 1038h256zM662 1212h-576l25 174h575z" />
    <glyph glyph-name="Iogonek" unicode="&#x12e;" horiz-adv-x="610" 
d="M246 -350l-25 -178q-32 -18 -65 -25q-31 -8 -76 -8q-101 0 -166 53q-64 52 -64 139q0 86 46 156q45 75 198 209l203 1438h268l-203 -1440h-67q-129 -120 -178 -184t-49 -111q0 -34 22 -53t62 -19q21 0 45 6z" />
    <glyph glyph-name="iogonek" unicode="&#x12f;" horiz-adv-x="555" 
d="M227 1354l-6 -2q0 69 47 116q45 45 123 45q76 0 121 -45q47 -47 47 -116q0 -72 -45 -117t-119 -45t-121 47t-47 117zM221 -352l-24 -178q-31 -17 -66 -25q-31 -8 -76 -8q-101 0 -166 53q-63 51 -63 139t45 156q44 73 199 209l147 1036h256l-145 -1038h-58
q-126 -117 -178 -185q-49 -64 -49 -110q0 -33 23 -53q22 -19 61 -19q21 0 45 6z" />
    <glyph glyph-name="Idotaccent" unicode="&#x130;" horiz-adv-x="610" 
d="M362 0h-268l203 1440h268zM608 1714h2q0 -61 -43 -104t-104 -43q-60 0 -103 43t-43 104q0 60 43 103t103 43q59 0 102 -43t43 -103z" />
    <glyph glyph-name="dotlessi" unicode="&#x131;" horiz-adv-x="555" 
d="M334 0h-258l147 1038h256z" />
    <glyph glyph-name="IJ" unicode="&#x132;" horiz-adv-x="1798" 
d="M362 0h-268l203 1440h268zM1497 1440l266 -6l-141 -1002q-30 -211 -172 -338q-137 -125 -352 -125q-217 0 -353 142q-133 139 -118 360h266q-3 -113 55 -180q59 -68 166 -68q102 0 166 64q65 65 80 178z" />
    <glyph glyph-name="ij" unicode="&#x133;" horiz-adv-x="1122" 
d="M227 1354l-6 -2q0 69 47 116q45 45 123 45q76 0 121 -45q47 -47 47 -116q0 -72 -45 -117t-119 -45t-121 47t-47 117zM328 -2h-258l147 1038h256zM1112 1356l-2 -4q0 -67 -45 -109q-46 -43 -113 -43q-69 0 -112 43t-43 111q0 69 43 112t114 43q72 0 115 -43t43 -110z
M627 -68l145 1098h260l-160 -1120q-27 -195 -122 -287t-267 -92q-19 0 -73 4q-43 4 -62 10l31 224l41 -5q14 -2 31 -2q73 0 120 41q44 41 56 129z" />
    <glyph glyph-name="Jcircumflex" unicode="&#x134;" horiz-adv-x="1187" 
d="M887 1440l266 -6l-141 -1002q-30 -211 -172 -338q-137 -125 -353 -125t-352 142q-134 140 -119 360h267q-3 -113 55 -180q59 -68 166 -68q102 0 166 64q65 65 80 178zM682 1556l262 302h266l179 -302h-220l-104 173l-152 -173h-231z" />
    <glyph glyph-name="jcircumflex" unicode="&#x135;" horiz-adv-x="571" 
d="M31 1167l262 301h266l178 -301h-219l-104 172l-152 -172h-231zM82 -61l145 1097h260l-159 -1120q-27 -194 -123 -287q-95 -92 -266 -92q-20 0 -74 4q-43 4 -62 10l31 224l41 -4q14 -2 31 -2q74 0 121 41q43 40 55 129z" />
    <glyph glyph-name="uni0136" unicode="&#x136;" horiz-adv-x="1286" 
d="M696 -332l-106 -241h-137l84 180q-43 16 -66 49q-25 36 -25 78q0 59 37 96t97 37q59 0 96 -37t37 -94q0 -3 -4 -31q-3 -13 -13 -37zM297 1432h268l-86 -617l596 617h338l-682 -699l481 -741h-319l-434 678l-97 -678h-268z" />
    <glyph glyph-name="uni0137" unicode="&#x137;" horiz-adv-x="1087" 
d="M614 -332l-106 -241h-137l84 180q-43 16 -66 49q-24 34 -24 78q0 60 36 96q37 37 97 37q59 0 96 -37t37 -94q0 -3 -4 -31q-3 -13 -13 -37zM332 -8h-258l213 1517h258l-129 -907l401 428h305l-454 -479l362 -559h-299l-328 508z" />
    <glyph glyph-name="kgreenlandic" unicode="&#x138;" horiz-adv-x="1085" 
d="M330 0h-258l147 1038h256l-61 -430l403 430h303l-452 -479l360 -559h-299l-328 510z" />
    <glyph glyph-name="Lacute" unicode="&#x139;" horiz-adv-x="1073" 
d="M571 1563h-254l213 301h254zM971 0h-877l203 1440h268l-168 -1194h609z" />
    <glyph glyph-name="lacute" unicode="&#x13a;" horiz-adv-x="555" 
d="M567 1647h-254l213 301h254zM291 1518h256l-213 -1518h-256z" />
    <glyph glyph-name="uni013B" unicode="&#x13b;" horiz-adv-x="1073" 
d="M612 -332l-106 -241h-137l84 180q-43 16 -66 49q-25 36 -25 78q0 59 37 96t97 37q59 0 96 -37t37 -94q0 -3 -4 -31q-3 -13 -13 -37zM971 -8h-877l203 1440h268l-168 -1194h609z" />
    <glyph glyph-name="uni013C" unicode="&#x13c;" horiz-adv-x="555" 
d="M287 -332l-107 -241h-137l84 180q-43 16 -66 49q-24 34 -24 78q0 59 37 96t96 37t96 -37t37 -94q0 -3 -4 -31q-3 -17 -12 -37zM291 1509h256l-213 -1517h-256z" />
    <glyph glyph-name="Lcaron" unicode="&#x13d;" horiz-adv-x="1089" 
d="M991 1307l-157 -275h-154l133 234q-43 15 -68 51q-24 38 -24 82q0 61 43 104t106 43q64 0 107 -43t43 -104q0 -22 -6 -43q-2 -15 -23 -49zM965 0h-877l203 1440h268l-168 -1194h608z" />
    <glyph glyph-name="lcaron" unicode="&#x13e;" horiz-adv-x="704" 
d="M963 1307l-158 -275h-154l133 234q-41 14 -67 51q-25 39 -25 82q0 61 43 104t107 43q63 0 106 -43t43 -104q0 -22 -6 -43q-3 -17 -22 -49zM285 1518h256l-213 -1518h-256z" />
    <glyph glyph-name="Ldot" unicode="&#x13f;" horiz-adv-x="1097" 
d="M971 0h-877l203 1440h268l-168 -1194h609zM1044 725l5 -2q0 -72 -52 -121t-129 -49q-76 0 -125 49t-49 121q0 78 49 127t125 49q78 0 127 -49t49 -125z" />
    <glyph glyph-name="ldot" unicode="&#x140;" horiz-adv-x="872" 
d="M291 1518h256l-213 -1518h-256zM920 725l4 -2q0 -72 -52 -121t-129 -49q-76 0 -125 49t-49 121q0 78 49 127t125 49q78 0 127 -49q50 -50 50 -125z" />
    <glyph glyph-name="Lslash" unicode="&#x141;" horiz-adv-x="1146" 
d="M1042 0h-876l70 492l-181 -93l29 226l182 92l103 723h268l-82 -576l299 152l-29 -225l-301 -154l-55 -391h608z" />
    <glyph glyph-name="lslash" unicode="&#x142;" horiz-adv-x="778" 
d="M463 0h-256l86 614l-223 -116l14 225l242 127l94 668h256l-74 -525l219 115l-16 -223l-236 -123z" />
    <glyph glyph-name="Nacute" unicode="&#x143;" horiz-adv-x="1468" 
d="M1001 1563h-253l213 301h253zM346 0h-252l203 1440h252l479 -1002l141 1002h252l-200 -1440h-258l-476 997z" />
    <glyph glyph-name="nacute" unicode="&#x144;" 
d="M834 1167h-254l213 301h254zM330 0l-256 -2l147 1038h244l-16 -112q58 67 139 104q78 37 168 37q183 0 282 -123q99 -126 72 -311l-86 -631h-258l82 592q15 116 -33 176q-49 61 -156 61q-90 0 -161 -59q-68 -59 -80 -147z" />
    <glyph glyph-name="uni0145" unicode="&#x145;" horiz-adv-x="1468" 
d="M733 -332l-106 -241h-138l84 180q-42 15 -65 49q-25 36 -25 78q0 59 37 96t96 37q60 0 97 -37t37 -94q0 -3 -1 -7.5t-2 -11t-2 -12.5q-3 -17 -12 -37zM346 -8h-252l203 1440h252l479 -1002l141 1002h252l-200 -1440h-258l-476 997z" />
    <glyph glyph-name="uni0146" unicode="&#x146;" 
d="M635 -332l-107 -241h-137l84 180q-42 15 -65 49q-25 36 -25 78q0 59 37 96t96 37t96 -37t37 -94q0 -3 -4 -31q-3 -17 -12 -37zM330 -8l-256 -2l147 1038h244l-16 -113q60 69 139 105q78 37 168 37q183 0 282 -123q99 -126 72 -311l-86 -631h-258l82 592q15 116 -33 176
q-49 61 -156 61q-90 0 -161 -59q-68 -59 -80 -148z" />
    <glyph glyph-name="Ncaron" unicode="&#x147;" horiz-adv-x="1468" 
d="M346 0h-252l203 1440h252l479 -1002l141 1002h252l-200 -1440h-258l-476 997zM1280 1864l-262 -301h-266l-179 301h220l104 -172l152 172h231z" />
    <glyph glyph-name="ncaron" unicode="&#x148;" 
d="M1104 1468l-262 -301h-267l-178 301h219l105 -172l151 172h232zM330 0l-256 -2l147 1038h244l-16 -112q58 67 139 104q78 37 168 37q183 0 282 -123q99 -126 72 -311l-86 -631h-258l82 592q15 116 -33 176q-49 61 -156 61q-90 0 -161 -59q-68 -59 -80 -147z" />
    <glyph glyph-name="napostrophe" unicode="&#x149;" 
d="M301 1376l-106 -241h-138l84 180q-42 15 -65 49q-25 36 -25 78q0 59 37 96t96 37q60 0 97 -37q36 -36 36 -94q0 -3 -4 -31q-3 -17 -12 -37zM330 -8l-256 -2l147 1038h244l-16 -113q60 69 139 105q78 37 168 37q183 0 282 -123q99 -126 72 -311l-86 -631h-258l82 592
q15 116 -33 176q-49 61 -156 61q-90 0 -161 -59q-68 -59 -80 -148z" />
    <glyph glyph-name="Omacron" unicode="&#x14c;" horiz-adv-x="1693" 
d="M342 1233l-4 -2q106 112 258 174q146 61 311 61q319 0 523 -192t204 -498q0 -165 -61 -311q-62 -148 -174 -260t-260 -174t-312 -62q-315 0 -518 197t-203 493q0 164 62 312q66 154 174 262zM383 670l-2 -2q0 -193 127 -320q125 -125 326 -125q218 0 366 154t148 379
q0 190 -127 323q-126 129 -326 129q-217 0 -365 -157q-147 -156 -147 -381zM1229 1602h-576l25 174h575z" />
    <glyph glyph-name="omacron" unicode="&#x14d;" horiz-adv-x="1265" 
d="M989 1212h-575l24 174h576zM1196 563l-6 -6q0 -248 -170 -418t-424 -170q-233 0 -381 142q-147 141 -147 360q0 244 170 420q169 172 421 172q235 0 385 -141q152 -143 152 -359zM322 485v-4q0 -121 79 -200q80 -80 205 -80q138 0 234 96q94 94 94 238q0 119 -80 202
q-79 82 -199 82q-145 0 -239 -94t-94 -240z" />
    <glyph glyph-name="Obreve" unicode="&#x14e;" horiz-adv-x="1693" 
d="M342 1233l-4 -2q106 112 258 174q146 61 311 61q319 0 523 -192t204 -498q0 -165 -61 -311q-62 -148 -174 -260t-260 -174t-312 -62q-315 0 -518 197t-203 493q0 164 62 312q66 154 174 262zM383 670l-2 -2q0 -193 127 -320q125 -125 326 -125q218 0 366 154t148 379
q0 190 -127 323q-126 129 -326 129q-217 0 -365 -157q-147 -156 -147 -381zM971 1536l-4 -2q-142 0 -230 88q-92 89 -92 221h189q0 -65 36 -104t99 -39q60 0 98 41q37 40 37 104h188q0 -132 -92 -221q-88 -88 -229 -88z" />
    <glyph glyph-name="obreve" unicode="&#x14f;" horiz-adv-x="1265" 
d="M1196 563l-6 -6q0 -248 -170 -418t-424 -170q-233 0 -381 142q-147 141 -147 360q0 244 170 420q169 172 421 172q235 0 385 -141q152 -143 152 -359zM322 485v-4q0 -121 79 -200q80 -80 205 -80q138 0 234 96q94 94 94 238q0 119 -80 202q-79 82 -199 82
q-145 0 -239 -94t-94 -240zM711 1137l-4 -2q-142 0 -230 88q-92 89 -92 221h188q0 -65 37 -105q36 -39 99 -39q60 0 98 41q37 40 37 105h188q0 -132 -92 -221q-88 -88 -229 -88z" />
    <glyph glyph-name="Ohungarumlaut" unicode="&#x150;" horiz-adv-x="1693" 
d="M817 1864h242l-187 -301h-239zM1133 1864h241l-186 -301h-238zM342 1233l-4 -2q106 112 258 174q146 61 311 61q319 0 523 -192t204 -498q0 -165 -61 -311q-62 -148 -174 -260t-260 -174t-312 -62q-315 0 -518 197t-203 493q0 164 62 312q66 154 174 262zM383 670l-2 -2
q0 -193 127 -320q125 -125 326 -125q218 0 366 154t148 379q0 190 -127 323q-126 129 -326 129q-217 0 -365 -157q-147 -156 -147 -381z" />
    <glyph glyph-name="ohungarumlaut" unicode="&#x151;" horiz-adv-x="1265" 
d="M602 1468h242l-187 -301h-239zM918 1468h241l-186 -301h-238zM1196 563l-6 -6q0 -248 -170 -418t-424 -170q-233 0 -381 142q-147 141 -147 360q0 244 170 420q169 172 421 172q235 0 385 -141q152 -143 152 -359zM322 485v-4q0 -121 79 -200q80 -80 205 -80
q138 0 234 96q94 94 94 238q0 119 -80 202q-79 82 -199 82q-145 0 -239 -94t-94 -240z" />
    <glyph glyph-name="OE" unicode="&#x152;" horiz-adv-x="2355" 
d="M2171 0l-922 -2l19 133q-101 -78 -217 -117q-125 -41 -246 -41q-293 0 -500 201q-203 200 -203 490q0 150 60 301q60 148 170 258q113 113 258 178q138 63 301 63q164 0 301 -61q138 -62 233 -176l31 213h907l-36 -246h-635l-52 -346h590l-32 -234h-588l-54 -368h648z
M381 670l-2 -2q0 -193 127 -320q125 -125 325 -125q219 0 367 154t148 379q0 190 -127 323q-126 129 -326 129q-217 0 -365 -157q-147 -156 -147 -381z" />
    <glyph glyph-name="oe" unicode="&#x153;" horiz-adv-x="2111" 
d="M1051 205v6q-79 -110 -203 -172t-266 -62q-217 0 -363 146q-145 145 -145 356q0 244 166 416t403 172q145 0 264 -61q120 -61 187 -172q76 113 192 174t248 61q225 0 369 -141q143 -140 143 -357q0 -31 -2 -49q-7 -65 -8 -69h-838q9 -119 86 -193t197 -74q89 0 153 37
t105 111h260q-64 -166 -207 -264q-141 -99 -319 -99q-136 0 -248 62q-111 63 -174 172zM1522 858h2q-98 0 -181 -59q-82 -58 -122 -158h575q-20 99 -94 160q-69 57 -180 57zM330 498l2 -2q0 -121 80 -201t204 -80q138 0 234 96q94 94 94 238q0 120 -80 203q-79 82 -198 82
q-147 0 -242 -95q-94 -94 -94 -241z" />
    <glyph glyph-name="Racute" unicode="&#x154;" horiz-adv-x="1372" 
d="M365 0l-271 2l201 1440h543q207 0 348 -117t141 -297q0 -189 -123 -315t-334 -160l387 -553h-315l-373 543h-129zM795 1208h-265l-61 -444h279q132 0 215 65q79 64 79 179q0 91 -69 145q-70 55 -178 55zM911 1565h-254l213 301h254z" />
    <glyph glyph-name="racute" unicode="&#x155;" horiz-adv-x="798" 
d="M678 1167h-254l213 301h254zM219 1038l246 -2l-19 -139q59 77 140 117q84 41 170 41q23 0 37 -2l43 -6l-35 -240l-51 6q-16 2 -43 2q-127 0 -203 -76q-80 -77 -98 -204l-76 -535h-258z" />
    <glyph glyph-name="uni0156" unicode="&#x156;" horiz-adv-x="1372" 
d="M725 -332l-107 -241h-137l84 180q-42 15 -65 49q-25 36 -25 78q0 59 37 96t96 37q60 0 97 -37q36 -36 36 -94q0 -3 -4 -31q-3 -17 -12 -37zM365 -8l-271 2l201 1440h543q207 0 348 -117t141 -297q0 -189 -123 -315t-334 -160l387 -553h-315l-373 543h-129zM795 1200h-265
l-61 -444h279q132 0 215 65q79 64 79 178q0 92 -69 146q-70 55 -178 55z" />
    <glyph glyph-name="uni0157" unicode="&#x157;" horiz-adv-x="798" 
d="M281 -332l-107 -241h-137l84 180q-43 16 -66 49q-24 34 -24 78q0 59 37 96t96 37t96 -37t37 -94q0 -3 -4 -31q-3 -17 -12 -37zM219 1030l246 -2l-19 -139q59 77 140 117q84 41 170 41q16 0 37 -3l43 -6l-35 -239l-51 6q-16 2 -43 2q-127 0 -203 -76q-80 -77 -98 -205
l-76 -534h-258z" />
    <glyph glyph-name="Rcaron" unicode="&#x158;" horiz-adv-x="1372" 
d="M365 0l-271 2l201 1440h543q207 0 348 -117t141 -297q0 -189 -123 -315t-334 -160l387 -553h-315l-373 543h-129zM795 1208h-265l-61 -444h279q132 0 215 65q79 64 79 179q0 91 -69 145q-70 55 -178 55zM1190 1866l-262 -301h-266l-179 301h219l105 -172l151 172h232z
" />
    <glyph glyph-name="rcaron" unicode="&#x159;" horiz-adv-x="798" 
d="M948 1468l-262 -301h-266l-178 301h219l104 -172l152 172h231zM219 1038l246 -2l-19 -139q59 77 140 117q84 41 170 41q23 0 37 -2l43 -6l-35 -240l-51 6q-16 2 -43 2q-127 0 -203 -76q-80 -77 -98 -204l-76 -535h-258z" />
    <glyph glyph-name="Sacute" unicode="&#x15a;" horiz-adv-x="1257" 
d="M694 1466l2 -4q238 0 375 -125q138 -126 135 -340h-272q3 111 -62 170q-66 60 -184 60q-101 0 -166 -47q-61 -46 -61 -129q0 -58 37 -95q35 -35 139 -73l162 -58q195 -68 274 -159q80 -92 80 -232q0 -213 -143 -338t-381 -125q-263 0 -420 133q-153 132 -141 367h274
q-6 -125 70 -192q77 -68 217 -68q115 0 182 55q68 56 68 152q0 59 -37 96t-168 86l-176 66q-163 61 -236 151q-76 88 -76 221q0 194 142 312q140 116 366 116zM848 1559h-254l213 301h254z" />
    <glyph glyph-name="sacute" unicode="&#x15b;" horiz-adv-x="1030" 
d="M702 1167h-253l213 301h253zM549 1065l-2 -6q188 0 301 -88q114 -88 117 -246h-260q0 71 -39 104q-41 35 -123 35q-67 0 -109 -28q-41 -27 -41 -80q0 -41 31 -66q33 -26 117 -47l69 -18q171 -46 244 -119q74 -74 74 -184q0 -164 -117 -259q-113 -94 -307 -94
q-215 0 -344 97q-126 95 -123 268h270q-3 -74 45 -119q49 -43 142 -43q75 0 122 35q46 34 46 92q0 42 -27 66q-25 25 -111 47l-104 28q-158 44 -221 113q-68 71 -68 184q0 149 117 238q122 90 301 90z" />
    <glyph glyph-name="Scircumflex" unicode="&#x15c;" horiz-adv-x="1257" 
d="M694 1466l2 -4q238 0 375 -125q138 -126 135 -340h-272q3 111 -62 170q-66 60 -184 60q-101 0 -166 -47q-61 -46 -61 -129q0 -58 37 -95q35 -35 139 -73l162 -58q195 -68 274 -159q80 -92 80 -232q0 -213 -143 -338t-381 -125q-263 0 -420 133q-153 132 -141 367h274
q-6 -125 70 -192q77 -68 217 -68q115 0 182 55q68 56 68 152q0 59 -37 96t-168 86l-176 66q-163 61 -236 151q-76 88 -76 221q0 194 142 312q140 116 366 116zM373 1559l262 301h266l178 -301h-219l-104 172l-152 -172h-231z" />
    <glyph glyph-name="scircumflex" unicode="&#x15d;" horiz-adv-x="1030" 
d="M219 1167l262 301h267l178 -301h-219l-105 172l-151 -172h-232zM549 1065l-2 -6q188 0 301 -88q114 -88 117 -246h-260q0 71 -39 104q-41 35 -123 35q-67 0 -109 -28q-41 -27 -41 -80q0 -41 31 -66q33 -26 117 -47l69 -18q171 -46 244 -119q74 -74 74 -184
q0 -164 -117 -259q-113 -94 -307 -94q-215 0 -344 97q-126 95 -123 268h270q-3 -74 45 -119q49 -43 142 -43q75 0 122 35q46 34 46 92q0 42 -27 66q-25 25 -111 47l-104 28q-158 44 -221 113q-68 71 -68 184q0 149 117 238q122 90 301 90z" />
    <glyph glyph-name="Scedilla" unicode="&#x15e;" horiz-adv-x="1257" 
d="M694 1466l-8 -10q238 0 375 -125q138 -126 135 -340h-272q3 111 -62 170q-66 60 -184 60q-101 0 -166 -47q-61 -46 -61 -130q0 -58 36 -94q34 -34 140 -73l161 -58q195 -68 275 -160t80 -231q0 -199 -129 -322q-128 -122 -346 -137l-62 -78q99 -9 154 -61t55 -139
q0 -108 -76 -178t-190 -70q-111 0 -182 59q-68 59 -68 152h180q3 -29 23 -43q24 -17 53 -17q34 0 59 25t25 59q0 36 -21 54t-55 18q-27 0 -45 -6q-18 -7 -33 -25l-137 78l146 185q-212 30 -326 159t-105 330h275q-6 -125 70 -192q77 -68 217 -68q115 0 182 55t67 152
q0 56 -34 96q-33 36 -166 86l-176 66q-160 60 -234 151q-78 96 -78 221q0 194 142 312q140 116 366 116z" />
    <glyph glyph-name="scedilla" unicode="&#x15f;" horiz-adv-x="1030" 
d="M549 1065l-2 -10q188 0 301 -88q114 -88 117 -246h-260q0 71 -39 104q-41 35 -123 35q-65 0 -109 -29q-41 -27 -41 -79q0 -41 31 -66q34 -26 115 -47l69 -18q166 -44 242 -117t76 -187q0 -154 -101 -245q-104 -93 -276 -105l-62 -78q99 -9 154 -61t55 -139
q0 -109 -75 -178q-76 -70 -191 -70q-111 0 -182 59q-68 59 -68 152h180q3 -29 23 -43q24 -17 53 -17q35 0 60 25q24 24 24 59q0 37 -20 54q-21 18 -56 18q-27 0 -45 -6q-17 -7 -32 -25l-138 78l148 185q-166 27 -254 118q-89 92 -86 236h270q-3 -74 45 -119q49 -43 142 -43
q75 0 122 35q46 34 46 92q0 42 -27 66q-25 25 -111 47l-104 28q-149 43 -221 115q-68 71 -68 182q0 149 117 238q122 90 301 90z" />
    <glyph glyph-name="Scaron" unicode="&#x160;" horiz-adv-x="1257" 
d="M694 1466l2 -4q238 0 375 -125q138 -126 135 -340h-272q3 111 -62 170q-66 60 -184 60q-101 0 -166 -47q-61 -46 -61 -129q0 -58 37 -95q35 -35 139 -73l162 -58q195 -68 274 -159q80 -92 80 -232q0 -213 -143 -338t-381 -125q-263 0 -420 133q-153 132 -141 367h274
q-6 -125 70 -192q77 -68 217 -68q115 0 182 55q68 56 68 152q0 59 -37 96t-168 86l-176 66q-163 61 -236 151q-76 88 -76 221q0 194 142 312q140 116 366 116zM1126 1860l-262 -301h-266l-178 301h219l104 -172l152 172h231z" />
    <glyph glyph-name="scaron" unicode="&#x161;" horiz-adv-x="1030" 
d="M975 1468l-262 -301h-267l-178 301h219l105 -172l151 172h232zM549 1065l-2 -6q188 0 301 -88q114 -88 117 -246h-260q0 71 -39 104q-41 35 -123 35q-67 0 -109 -28q-41 -27 -41 -80q0 -41 31 -66q33 -26 117 -47l69 -18q171 -46 244 -119q74 -74 74 -184
q0 -164 -117 -259q-113 -94 -307 -94q-215 0 -344 97q-126 95 -123 268h270q-3 -74 45 -119q49 -43 142 -43q75 0 122 35q46 34 46 92q0 42 -27 66q-25 25 -111 47l-104 28q-158 44 -221 113q-68 71 -68 184q0 149 117 238q122 90 301 90z" />
    <glyph glyph-name="uni0162" unicode="&#x162;" horiz-adv-x="1134" 
d="M401 0l-47 -4l166 1194h-401l35 246h1073l-35 -246h-404l-167 -1194h-41l-80 -102q97 -9 153 -62t56 -139q0 -108 -76 -178t-191 -70q-111 0 -182 59q-67 58 -67 152h180q3 -30 22 -43q22 -16 54 -16q35 0 59 24t24 60t-20 53q-21 18 -55 18q-27 0 -45 -6q-18 -7 -33 -25
l-137 78z" />
    <glyph glyph-name="uni0163" unicode="&#x163;" horiz-adv-x="815" 
d="M815 1038l-35 -239h-274l-64 -441q-15 -89 19 -129q33 -39 117 -39q21 0 67 11q35 9 72 30l-33 -231q-38 -17 -76 -25q-36 -8 -88 -8h-14l-60 -76q99 -9 154 -61t55 -139q0 -109 -75 -178q-76 -70 -191 -70q-111 0 -182 59q-68 59 -68 152h180q3 -29 23 -43
q24 -17 53 -17q35 0 60 25q24 24 24 59q0 37 -20 54q-21 18 -56 18q-27 0 -45 -6q-17 -7 -32 -25l-138 78l160 201q-103 39 -145 131q-40 91 -19 238l68 442h-170l33 229h170l49 324l262 43l-53 -367h272z" />
    <glyph glyph-name="Tcaron" unicode="&#x164;" horiz-adv-x="1134" 
d="M623 0h-267l166 1194h-401l35 246h1073l-35 -246h-403zM1112 1864l-262 -301h-266l-178 301h219l104 -172l152 172h231z" />
    <glyph glyph-name="tcaron" unicode="&#x165;" horiz-adv-x="813" 
d="M1026 1448l-158 -274h-153l133 233q-43 15 -68 51q-24 37 -24 82q0 62 43 105t106 43q64 0 107 -43t43 -105q0 -22 -6 -43q-2 -15 -23 -49zM807 1038l-29 -233h-274l-64 -440q-12 -87 19 -129q29 -39 114 -39q26 0 68 10q31 8 72 31l-33 -232q-33 -15 -76 -24
q-40 -9 -88 -9q-200 0 -285 99q-85 98 -55 295l68 442h-170l32 229h170l50 324l262 43l-53 -367h272z" />
    <glyph glyph-name="Tbar" unicode="&#x166;" horiz-adv-x="1179" 
d="M645 0h-266l88 641h-279l27 195h281l49 358h-402l35 246h1073l-34 -246h-404l-51 -358h280l-26 -195h-281z" />
    <glyph glyph-name="tbar" unicode="&#x167;" horiz-adv-x="835" 
d="M496 639l276 -4l-24 -189h-279l-12 -81q-15 -90 18 -129t117 -39q25 0 67 10q31 8 72 31l-33 -232q-34 -15 -75 -24t-88 -9q-201 0 -283 99q-82 98 -55 295l12 84h-162l27 188h164l26 170h-170l33 229h170l49 324l262 43l-53 -367h272l-32 -229h-275z" />
    <glyph glyph-name="Utilde" unicode="&#x168;" horiz-adv-x="1413" 
d="M979 477l131 963h268l-137 -991q-30 -217 -184 -347q-153 -129 -383 -129q-247 0 -402 158q-153 156 -118 393l127 914h268l-127 -924q-18 -128 55 -207q74 -80 205 -80q121 0 201 68q81 69 96 182zM905 1780h-6q36 -28 41 -31q12 -6 23 -6q23 0 36 22q13 27 21 74h170
q-9 -139 -62 -207q-52 -67 -147 -67q-39 0 -74 12q-28 9 -76 53q-30 30 -43 35q-15 6 -30 6q-32 0 -47 -24q-18 -32 -23 -76h-172q9 141 66 209q56 71 159 71q46 0 78 -14q36 -13 86 -57z" />
    <glyph glyph-name="utilde" unicode="&#x169;" horiz-adv-x="1210" 
d="M881 1038l254 -2l-148 -1038h-242l17 111q-56 -67 -135 -103q-81 -35 -160 -35q-180 0 -279 123q-97 120 -69 312l88 630h258l-84 -590q-15 -111 33 -174t147 -63q91 0 156 59q62 62 76 160zM754 1386h-6q34 -26 40 -30q12 -6 23 -6q24 0 37 22q12 24 20 74h170
q-9 -140 -61 -207q-53 -68 -148 -68q-36 0 -73 13q-28 9 -76 53q-30 30 -43 35q-15 6 -31 6q-31 0 -47 -25q-17 -30 -22 -75h-172q9 141 65 208q57 72 160 72q46 0 78 -14q34 -13 86 -58z" />
    <glyph glyph-name="Umacron" unicode="&#x16a;" horiz-adv-x="1413" 
d="M979 477l131 963h268l-137 -991q-30 -217 -184 -347q-153 -129 -383 -129q-247 0 -402 158q-153 156 -118 393l127 914h268l-127 -924q-18 -128 55 -207q74 -80 205 -80q121 0 201 68q81 69 96 182zM1133 1606h-576l25 174h575z" />
    <glyph glyph-name="umacron" unicode="&#x16b;" horiz-adv-x="1210" 
d="M881 1038l254 -2l-148 -1038h-242l17 111q-56 -67 -135 -103q-81 -35 -160 -35q-180 0 -279 123q-97 120 -69 312l88 630h258l-84 -590q-15 -111 33 -174t147 -63q91 0 156 59q62 62 76 160zM975 1210h-576l25 174h575z" />
    <glyph glyph-name="Ubreve" unicode="&#x16c;" horiz-adv-x="1413" 
d="M979 477l131 963h268l-137 -991q-30 -217 -184 -347q-153 -129 -383 -129q-247 0 -402 158q-153 156 -118 393l127 914h268l-127 -924q-18 -128 55 -207q74 -80 205 -80q121 0 201 68q81 69 96 182zM874 1540l-4 -2q-141 0 -229 88q-92 89 -92 221h188q0 -64 37 -104
q36 -39 98 -39q61 0 99 41q37 40 37 104h188q0 -132 -92 -221q-88 -88 -230 -88z" />
    <glyph glyph-name="ubreve" unicode="&#x16d;" horiz-adv-x="1210" 
d="M881 1038l254 -2l-148 -1038h-242l17 111q-56 -67 -135 -103q-81 -35 -160 -35q-180 0 -279 123q-97 120 -69 312l88 630h258l-84 -590q-15 -111 33 -174t147 -63q91 0 156 59q62 62 76 160zM702 1145l-4 -2q-141 0 -229 88q-92 89 -92 221h188q0 -64 37 -104
q36 -39 98 -39q61 0 99 41q37 40 37 104h188q0 -132 -92 -221q-88 -88 -230 -88z" />
    <glyph glyph-name="Uring" unicode="&#x16e;" horiz-adv-x="1413" 
d="M1098 1759q0 -91 -68 -153t-162 -62t-159 62q-66 63 -66 153t66 156q63 63 159 63q99 0 162 -63q68 -65 68 -156zM786 1759h-2q0 -34 25 -59t59 -25q37 0 62 25q24 24 24 59q0 38 -24 62t-62 24q-33 0 -57 -24q-25 -25 -25 -62zM977 477l131 963h268l-137 -991
q-30 -217 -184 -347q-153 -129 -383 -129q-247 0 -402 158q-153 156 -118 393l127 914h268l-127 -924q-18 -128 55 -207q74 -80 205 -80q121 0 201 68q81 69 96 182z" />
    <glyph glyph-name="uring" unicode="&#x16f;" horiz-adv-x="1210" 
d="M934 1366q0 -92 -68 -154q-67 -61 -161 -61q-96 0 -160 61q-66 63 -66 154q0 90 66 156q63 63 160 63q98 0 161 -63q68 -65 68 -156zM623 1366h-2q0 -35 24 -59q25 -25 60 -25q36 0 61 25t25 59q0 36 -25 61t-61 25q-33 0 -58 -25q-24 -24 -24 -61zM879 1038l254 -2
l-148 -1038h-242l17 111q-56 -67 -135 -103q-81 -35 -160 -35q-180 0 -279 123q-97 120 -69 312l88 630h258l-84 -590q-15 -111 33 -174t147 -63q91 0 156 59q62 62 76 160z" />
    <glyph glyph-name="Uhungarumlaut" unicode="&#x170;" horiz-adv-x="1413" 
d="M717 1864h241l-186 -301h-240zM1032 1864h242l-187 -301h-237zM979 477l131 963h268l-137 -991q-30 -217 -184 -347q-153 -129 -383 -129q-247 0 -402 158q-153 156 -118 393l127 914h268l-127 -924q-18 -128 55 -207q74 -80 205 -80q121 0 201 68q81 69 96 182z" />
    <glyph glyph-name="uhungarumlaut" unicode="&#x171;" horiz-adv-x="1210" 
d="M881 1038l254 -2l-148 -1038h-242l17 111q-56 -67 -135 -103q-81 -35 -160 -35q-180 0 -279 123q-97 120 -69 312l88 630h258l-84 -590q-15 -111 33 -174t147 -63q91 0 156 59q62 62 76 160zM588 1466h241l-186 -301h-240zM903 1466h242l-187 -301h-237z" />
    <glyph glyph-name="Uogonek" unicode="&#x172;" horiz-adv-x="1413" 
d="M684 227l-6 -4q119 0 199 68q81 69 96 182l133 963h268l-137 -992q-15 -116 -74 -217q-62 -100 -164 -178q-136 -100 -208 -194q-70 -88 -70 -160q0 -34 22 -53t62 -19q23 0 47 6l47 17l-22 -170q-50 -22 -74 -27q-31 -8 -74 -8q-96 0 -160 55q-63 54 -63 142
q0 83 43 159q42 75 158 178q-4 -2 -19 -2h-22q-239 0 -394 158q-153 156 -118 393l127 914h268l-127 -924q-18 -128 55 -207q74 -80 207 -80z" />
    <glyph glyph-name="uogonek" unicode="&#x173;" horiz-adv-x="1210" 
d="M881 1038l249 -12l-147 -1038h-41q-126 -117 -178 -185q-49 -64 -49 -110q0 -34 22 -53t62 -19q21 0 45 6l49 17l-23 -168q-32 -18 -65 -25q-31 -8 -76 -8q-101 0 -166 53q-63 51 -63 139t45 156q45 75 198 209l17 109q-56 -67 -135 -103q-81 -35 -160 -35
q-180 0 -279 123q-97 120 -69 312l88 630h258l-84 -590q-15 -111 33 -174t149 -63q89 0 154 59q63 57 78 160z" />
    <glyph glyph-name="Wcircumflex" unicode="&#x174;" horiz-adv-x="2072" 
d="M825 1563l262 301h267l178 -301h-219l-105 172l-151 -172h-232zM666 0h-285l-213 1440h281l133 -1071l454 1071h248l158 -1067l428 1067h284l-618 -1440h-285l-155 969z" />
    <glyph glyph-name="wcircumflex" unicode="&#x175;" horiz-adv-x="1759" 
d="M612 1167l262 301h267l178 -301h-219l-105 172l-151 -172h-232zM569 0h-260l-207 1038h250l135 -721l340 721h248l135 -719l336 719h256l-499 -1038h-256l-142 694z" />
    <glyph glyph-name="Ycircumflex" unicode="&#x176;" horiz-adv-x="1329" 
d="M725 0h-268l71 504l-362 936h291l237 -649l426 649h295l-618 -922zM461 1563l262 301h266l178 -301h-219l-104 172l-152 -172h-231z" />
    <glyph glyph-name="ycircumflex" unicode="&#x177;" horiz-adv-x="1114" 
d="M887 1038h270l-747 -1472h-265l209 420l-254 1052h267l159 -721zM291 1167l262 301h266l178 -301h-219l-104 172l-152 -172h-231z" />
    <glyph glyph-name="Ydieresis" unicode="&#x178;" horiz-adv-x="1329" 
d="M725 0h-268l71 504l-362 936h291l237 -649l426 649h295l-618 -922zM795 1702q0 -54 -37 -94q-36 -39 -92 -39t-95 39t-39 94q0 58 37 98q36 39 97 39q56 0 92 -39q37 -40 37 -98zM1126 1702q0 -55 -36 -94t-93 -39q-59 0 -98 39t-39 94q0 59 39 98t98 39q57 0 93 -39
t36 -98z" />
    <glyph glyph-name="Zacute" unicode="&#x179;" horiz-adv-x="1210" 
d="M1055 0h-1051l31 215l821 979h-668l33 246h1022l-31 -217l-823 -977h701zM872 1563h-254l213 301h254z" />
    <glyph glyph-name="zacute" unicode="&#x17a;" horiz-adv-x="1046" 
d="M748 1167h-254l213 301h254zM911 0h-921l24 172l645 637h-524l33 229h860l-24 -182l-627 -627h565z" />
    <glyph glyph-name="Zdotaccent" unicode="&#x17b;" horiz-adv-x="1210" 
d="M909 1714h2q0 -61 -43 -104t-104 -43q-59 0 -102 43q-44 44 -44 104q0 59 44 103q43 43 102 43t102 -43t43 -103zM1057 0h-1051l31 215l821 979h-668l33 246h1022l-31 -217l-823 -977h701z" />
    <glyph glyph-name="zdotaccent" unicode="&#x17c;" horiz-adv-x="1046" 
d="M911 0h-921l24 172l645 637h-524l33 229h860l-24 -182l-627 -627h565zM776 1321h2q0 -61 -43 -104t-104 -43q-60 0 -103 43t-43 104q0 59 43 102t103 43q59 0 102 -43t43 -102z" />
    <glyph glyph-name="Zcaron" unicode="&#x17d;" horiz-adv-x="1210" 
d="M1055 0h-1051l31 215l821 979h-668l33 246h1022l-31 -217l-823 -977h701zM1151 1864l-262 -301h-266l-179 301h220l104 -172l152 172h231z" />
    <glyph glyph-name="zcaron" unicode="&#x17e;" horiz-adv-x="1046" 
d="M1018 1468l-262 -301h-267l-178 301h219l105 -172l151 172h232zM911 0h-921l24 172l645 637h-524l33 229h860l-24 -182l-627 -627h565z" />
    <glyph glyph-name="longs" unicode="&#x17f;" horiz-adv-x="591" 
d="M494 1149l-168 -1151h-258l163 1165q27 195 125 287q100 92 273 92q58 0 102 -8q39 -7 98 -25l-32 -219q-39 13 -62 17q-38 6 -71 6q-78 0 -117 -39q-41 -41 -53 -125z" />
    <glyph glyph-name="florin" unicode="&#x192;" horiz-adv-x="1120" 
d="M737 719l-225 -809q-58 -204 -154 -291q-95 -86 -258 -86q-62 0 -98 8q-38 7 -82 25l31 225q23 -12 55 -18q30 -6 66 -6q76 0 118 36q44 38 68 127l215 785h-207l33 227h238l61 221q56 201 154 289q94 88 256 88q50 0 96 -6q24 -4 92 -23l-33 -225l-57 17q-30 6 -64 6
q-75 0 -118 -37q-45 -38 -68 -125l-55 -201h207l-33 -227h-238z" />
    <glyph glyph-name="uni0218" unicode="&#x218;" horiz-adv-x="1257" 
d="M684 -332l-106 -241h-138l84 180q-42 15 -65 49q-25 36 -25 78q0 59 37 96t96 37q60 0 97 -37q36 -36 36 -94q0 -3 -4 -31q-3 -17 -12 -37zM694 1458l2 -4q238 0 375 -125q138 -126 135 -340h-272q3 111 -62 170q-66 60 -184 60q-99 0 -166 -48q-61 -46 -61 -129
q0 -57 37 -94q36 -36 139 -74l162 -57q194 -68 274 -160t80 -231q0 -213 -143 -338t-381 -125q-263 0 -420 133q-153 132 -141 367h274q-6 -126 70 -193t217 -67q115 0 182 55q68 56 68 152q0 59 -37 96t-168 86l-176 65q-162 61 -236 152q-76 88 -76 221q0 193 142 311
q141 117 366 117z" />
    <glyph glyph-name="uni0219" unicode="&#x219;" horiz-adv-x="1030" 
d="M561 -332l-106 -241h-138l84 180q-42 15 -65 49q-25 36 -25 78q0 59 37 96t96 37q60 0 97 -37t37 -94q0 -3 -1 -7.5t-2 -11t-2 -12.5q-3 -17 -12 -37zM549 1057l-2 -6q188 0 301 -88q114 -88 117 -246h-260q0 71 -39 104q-41 35 -123 35q-65 0 -109 -29q-41 -27 -41 -79
q0 -41 31 -66q33 -26 117 -47l69 -19q172 -46 244 -118q74 -74 74 -185q0 -163 -117 -258q-113 -94 -307 -94q-216 0 -344 96q-126 95 -123 269h270q-3 -74 45 -119q49 -43 142 -43q75 0 122 35q46 34 46 92q0 41 -27 65q-25 25 -111 47l-104 29q-158 44 -221 113
q-68 71 -68 184q0 149 117 238q122 90 301 90z" />
    <glyph glyph-name="uni021A" unicode="&#x21a;" horiz-adv-x="1134" 
d="M569 -332l-106 -241h-137l84 180q-43 16 -66 49q-25 36 -25 78q0 59 37 96t97 37q59 0 96 -37t37 -94q0 -3 -4 -31q-2 -13 -13 -37zM623 -8h-267l166 1194h-401l35 246h1073l-35 -246h-403z" />
    <glyph glyph-name="uni021B" unicode="&#x21b;" horiz-adv-x="813" 
d="M412 -332l-107 -241h-137l84 180q-43 16 -66 49q-24 34 -24 78q0 59 37 96t96 37t96 -37t37 -94q0 -3 -4 -31q-3 -17 -12 -37zM813 1030l-29 -233h-274l-64 -441q-12 -87 19 -129q29 -39 115 -39q21 0 67 11q35 9 72 30l-33 -231q-38 -17 -76 -25q-36 -8 -88 -8
q-199 0 -284 98q-86 99 -56 295l68 443h-170l33 229h170l49 324l262 43l-53 -367h272z" />
    <glyph glyph-name="uni0237" unicode="&#x237;" horiz-adv-x="571" 
d="M82 -61l145 1097h260l-159 -1120q-27 -194 -123 -287q-95 -92 -266 -92q-20 0 -74 4q-43 4 -62 10l31 224l41 -4q14 -2 31 -2q74 0 121 41q43 40 55 129z" />
    <glyph glyph-name="circumflex" unicode="&#x2c6;" horiz-adv-x="835" 
d="M43 1167l262 301h266l179 -301h-220l-104 172l-152 -172h-231z" />
    <glyph glyph-name="caron" unicode="&#x2c7;" horiz-adv-x="870" 
d="M831 1468l-262 -301h-266l-178 301h219l105 -172l151 172h231z" />
    <glyph glyph-name="uni02C9" unicode="&#x2c9;" horiz-adv-x="743" 
d="M647 1212h-575l24 174h576z" />
    <glyph glyph-name="breve" unicode="&#x2d8;" horiz-adv-x="774" 
d="M410 1147l-4 -2q-142 0 -230 88q-92 89 -92 221h188q0 -64 37 -104q36 -39 99 -39q60 0 98 41q37 40 37 104h188q0 -132 -92 -221q-88 -88 -229 -88z" />
    <glyph glyph-name="dotaccent" unicode="&#x2d9;" horiz-adv-x="464" 
d="M379 1321h2q0 -61 -43 -104t-105 -43q-59 0 -102 43t-43 104q0 59 43 102t102 43q60 0 103 -43t43 -102z" />
    <glyph glyph-name="ring" unicode="&#x2da;" horiz-adv-x="591" 
d="M524 1366q0 -93 -67 -154t-162 -61q-96 0 -160 61q-65 62 -65 154q0 91 65 156q63 63 160 63q99 0 162 -63q67 -64 67 -156zM213 1366h-2q0 -34 25 -59t59 -25q36 0 61 25t25 59q0 36 -25 61t-61 25q-32 0 -57 -25t-25 -61z" />
    <glyph glyph-name="ogonek" unicode="&#x2db;" horiz-adv-x="573" 
d="M68 -360l-2 -9q0 82 43 152q50 79 221 231h202q-138 -126 -196 -200q-53 -71 -53 -117q0 -34 22 -53t62 -19q21 0 45 6l49 17l-23 -168q-32 -18 -65 -25q-31 -8 -76 -8q-101 0 -166 53q-63 51 -63 140z" />
    <glyph glyph-name="tilde" unicode="&#x2dc;" horiz-adv-x="804" 
d="M453 1389h-7q36 -28 41 -31q12 -6 23 -6q24 0 37 22q12 24 20 74h170q-9 -140 -61 -207t-148 -67q-39 0 -73 12q-28 9 -76 53q-30 30 -43 35q-15 6 -31 6q-31 0 -47 -25q-17 -30 -22 -75h-173q9 141 66 209q56 71 160 71q46 0 78 -14q36 -13 86 -57z" />
    <glyph glyph-name="hungarumlaut" unicode="&#x2dd;" horiz-adv-x="858" 
d="M244 1468h241l-186 -301h-240zM559 1468h242l-187 -301h-237z" />
    <glyph glyph-name="uni0394" unicode="&#x394;" horiz-adv-x="1341" 
d="M1229 197l-27 -197h-1212l28 197l635 1243h289zM760 1126l-438 -886h628z" />
    <glyph glyph-name="uni03A9" unicode="&#x3a9;" horiz-adv-x="1634" 
d="M645 0l-594 -4l33 244h317q-126 103 -198 237q-68 130 -68 277q0 298 217 503q219 207 535 207q301 0 491 -178q191 -179 191 -446q0 -183 -88 -332q-87 -147 -267 -264h248l-32 -244h-590l41 301q206 86 311 215q104 128 104 299q0 170 -116 283q-120 114 -299 114
q-202 0 -336 -137q-135 -138 -135 -334q0 -131 69 -237q71 -108 209 -197z" />
    <glyph glyph-name="uni03BC" unicode="&#x3bc;" horiz-adv-x="1245" 
d="M903 1038l256 2l-147 -1038h-242l16 111q-56 -67 -135 -103q-81 -35 -159 -35q-26 0 -76 11q-36 9 -70 30l-63 -448h-256l204 1472h258l-86 -610q-15 -95 35 -160q49 -61 146 -61q90 0 155 59q62 62 76 160z" />
    <glyph glyph-name="pi" unicode="&#x3c0;" horiz-adv-x="1366" 
d="M123 1038h1268l-33 -233h-176l-113 -805h-256l111 805h-402l-112 -805h-256l112 805h-176z" />
    <glyph glyph-name="Wgrave" unicode="&#x1e80;" horiz-adv-x="2072" 
d="M1034 1563l-127 301h242l123 -301h-238zM666 0h-285l-213 1440h281l133 -1071l454 1071h248l158 -1067l428 1067h284l-618 -1440h-285l-155 969z" />
    <glyph glyph-name="wgrave" unicode="&#x1e81;" horiz-adv-x="1759" 
d="M569 0h-260l-207 1038h250l135 -721l340 721h248l135 -719l336 719h256l-499 -1038h-256l-142 694zM821 1167l-127 301h242l123 -301h-238z" />
    <glyph glyph-name="Wacute" unicode="&#x1e82;" horiz-adv-x="2072" 
d="M1303 1563h-254l213 301h254zM666 0h-285l-213 1440h281l133 -1071l454 1071h248l158 -1067l428 1067h284l-618 -1440h-285l-155 969z" />
    <glyph glyph-name="wacute" unicode="&#x1e83;" horiz-adv-x="1759" 
d="M1096 1167h-254l213 301h254zM569 0h-260l-207 1038h250l135 -721l340 721h248l135 -719l336 719h256l-499 -1038h-256l-142 694z" />
    <glyph glyph-name="Wdieresis" unicode="&#x1e84;" horiz-adv-x="2072" 
d="M666 0h-285l-213 1440h281l133 -1071l454 1071h248l158 -1067l428 1067h284l-618 -1440h-285l-155 969zM1157 1702q0 -54 -37 -94q-36 -39 -92 -39q-55 0 -94 39t-39 94q0 58 37 98q36 39 96 39q56 0 92 -39q37 -40 37 -98zM1489 1702q0 -54 -37 -94q-36 -39 -92 -39
q-59 0 -98 39t-39 94q0 59 39 98t98 39q56 0 92 -39q37 -40 37 -98z" />
    <glyph glyph-name="wdieresis" unicode="&#x1e85;" horiz-adv-x="1759" 
d="M950 1309q0 -55 -37 -95q-35 -38 -92 -38q-56 0 -94 38q-39 39 -39 95q0 58 37 98q36 39 96 39q56 0 92 -39q37 -40 37 -98zM1282 1309q0 -55 -37 -95q-35 -38 -92 -38q-60 0 -98 38q-39 39 -39 95q0 59 39 98t98 39q56 0 92 -39q37 -40 37 -98zM569 0h-260l-207 1038
h250l135 -721l340 721h248l135 -719l336 719h256l-499 -1038h-256l-142 694z" />
    <glyph glyph-name="uni1E9E" unicode="&#x1e9e;" horiz-adv-x="1486" 
d="M1389 438l-9 2q0 -208 -137 -336q-138 -129 -356 -129q-83 0 -187 23q-96 23 -168 61l35 236q60 -40 144 -64q79 -24 153 -24q118 0 185 61t67 172q0 82 -59 135q-60 54 -154 54q-27 0 -51 -6q-24 -7 -45 -19l-137 164l377 430h-162q-171 0 -287 -104t-143 -289
l-113 -805h-268l114 809q43 306 230 469q186 162 491 162h475l-28 -211l-340 -398q165 -15 268 -124q105 -111 105 -269z" />
    <glyph glyph-name="Ygrave" unicode="&#x1ef2;" horiz-adv-x="1329" 
d="M725 0h-268l71 504l-362 936h291l237 -649l426 649h295l-618 -922zM672 1563l-127 301h241l123 -301h-237z" />
    <glyph glyph-name="ygrave" unicode="&#x1ef3;" horiz-adv-x="1114" 
d="M887 1038h270l-747 -1472h-265l209 420l-254 1052h267l159 -721zM498 1167l-127 301h241l123 -301h-237z" />
    <glyph glyph-name="endash" unicode="&#x2013;" horiz-adv-x="1183" 
d="M139 645h908v-221h-908v221z" />
    <glyph glyph-name="emdash" unicode="&#x2014;" horiz-adv-x="2156" 
d="M139 645h1878v-221h-1878v221z" />
    <glyph glyph-name="quoteleft" unicode="&#x2018;" horiz-adv-x="534" 
d="M389 1440l191 2l-185 -324q46 -21 74 -63q29 -50 29 -94q0 -76 -49 -125q-50 -50 -127 -50q-76 0 -129 50q-52 49 -52 122q0 29 9 50q10 31 24 53z" />
    <glyph glyph-name="quoteright" unicode="&#x2019;" horiz-adv-x="540" 
d="M334 809l-193 -6l185 323q-45 20 -74 64q-27 40 -27 96q0 78 49 127t127 49q77 0 129 -49t52 -123q0 -28 -9 -49q-10 -31 -24 -53z" />
    <glyph glyph-name="quotesinglbase" unicode="&#x201a;" horiz-adv-x="544" 
d="M154 -336l-193 -6l184 324q-44 20 -73 63q-27 41 -27 96q0 78 49 127t127 49q77 0 129 -49q51 -48 51 -123q0 -30 -8 -49q-10 -31 -24 -53z" />
    <glyph glyph-name="quotedblleft" unicode="&#x201c;" horiz-adv-x="966" 
d="M389 1440l191 2l-185 -324q46 -21 74 -63q29 -50 29 -94q0 -76 -49 -125q-50 -50 -127 -50q-76 0 -129 50q-52 49 -52 122q0 29 9 50q10 31 24 53zM823 1442l191 2l-185 -324q46 -21 74 -63q29 -50 29 -94q0 -76 -49 -125q-50 -50 -127 -50q-76 0 -129 50q-52 49 -52 123
q0 28 9 49q10 31 24 53z" />
    <glyph glyph-name="quotedblright" unicode="&#x201d;" horiz-adv-x="972" 
d="M334 809l-193 -6l185 323q-45 20 -74 64q-27 40 -27 96q0 78 49 127t127 49q77 0 129 -49t52 -123q0 -28 -9 -49q-10 -31 -24 -53zM762 803l-193 -6l185 323q-45 20 -74 64q-27 40 -27 96q0 78 49 127t127 49q77 0 129 -49t52 -123q0 -28 -9 -49q-10 -31 -24 -53z" />
    <glyph glyph-name="quotedblbase" unicode="&#x201e;" horiz-adv-x="976" 
d="M154 -336l-193 -6l184 324q-44 20 -73 63q-27 41 -27 96q0 78 49 127t127 49q77 0 129 -49q51 -48 51 -123q0 -30 -8 -49q-10 -31 -24 -53zM582 -342l-193 -6l184 323q-43 20 -73 64q-27 41 -27 96q0 78 49 127t127 49q77 0 129 -49q51 -48 51 -123q0 -30 -8 -49
q-10 -31 -24 -53z" />
    <glyph glyph-name="dagger" unicode="&#x2020;" horiz-adv-x="974" 
d="M106 850l29 213h299l47 340l264 57l-55 -397h297l-29 -213h-299l-114 -811l-264 -59l122 870h-297z" />
    <glyph glyph-name="daggerdbl" unicode="&#x2021;" horiz-adv-x="1038" 
d="M72 379l30 213h299l35 258h-297l29 213h299l47 340l264 57l-55 -397h295l-27 -213h-299l-35 -258h295l-28 -213h-297l-49 -340l-265 -59l58 399h-299z" />
    <glyph glyph-name="bullet" unicode="&#x2022;" horiz-adv-x="796" 
d="M694 750h2q0 -110 -75 -185q-76 -76 -191 -76t-188 76q-74 77 -74 185q0 114 74 188t188 74q117 0 191 -74q73 -73 73 -188z" />
    <glyph glyph-name="ellipsis" unicode="&#x2026;" horiz-adv-x="1466" 
d="M395 145l4 -2q0 -72 -51 -120q-53 -50 -129 -50q-75 0 -125 50q-49 49 -49 120q0 78 49 127t125 49q78 0 127 -49t49 -125zM864 143l4 -2q0 -73 -51 -121q-52 -49 -129 -49q-76 0 -125 49t-49 121q0 78 49 127t125 49q78 0 127 -49t49 -125zM1335 141l4 -2
q0 -73 -51 -121q-52 -49 -129 -49q-76 0 -125 49t-49 121q0 78 49 127t125 49q78 0 127 -49t49 -125z" />
    <glyph glyph-name="perthousand" unicode="&#x2030;" horiz-adv-x="2406" 
d="M852 1112v-2q0 -144 -98 -242t-250 -98q-154 0 -252 98t-98 244t98 240q104 96 252 96q146 0 250 -96q98 -94 98 -240zM1368 1438h221l-1267 -1440h-222zM340 1108l-4 -2q0 -70 47 -117q45 -45 117 -45q69 0 116 47q48 48 48 117q0 73 -46 119q-46 49 -116 49
q-71 0 -117 -49q-45 -45 -45 -119zM1532 326v4q0 -144 -98 -242t-250 -98q-148 0 -252 96q-98 94 -98 244q0 145 98 239q105 97 252 97q151 0 250 -99q98 -98 98 -241zM2312 330v4q0 -144 -98 -242t-250 -98q-148 0 -252 96q-98 94 -98 244q0 145 98 239q105 97 252 97
q151 0 250 -99q98 -98 98 -241zM1018 332v-2q0 -70 47 -117q45 -45 117 -45q69 0 116 47q45 45 45 117q0 74 -45 119q-46 49 -116 49q-71 0 -117 -49q-47 -53 -47 -119zM1798 330l-4 -2q0 -70 47 -117q45 -45 117 -45q70 0 117 47q45 45 45 117q0 74 -45 119q-46 49 -113 49
q-71 0 -117 -49q-47 -53 -47 -119z" />
    <glyph glyph-name="guilsinglleft" unicode="&#x2039;" horiz-adv-x="636" 
d="M236 72l-160 448l286 451h256l-296 -465l155 -434h-241z" />
    <glyph glyph-name="guilsinglright" unicode="&#x203a;" horiz-adv-x="636" 
d="M399 971l160 -449l-287 -450h-256l297 465l-155 434h241z" />
    <glyph glyph-name="fraction" unicode="&#x2044;" horiz-adv-x="323" 
d="M711 1440h221l-1268 -1440h-221z" />
    <glyph glyph-name="zero.superior" unicode="&#x2070;" horiz-adv-x="698" 
d="M436 995l4 2q-133 0 -207 80q-73 79 -55 207l31 219q15 113 92 178q76 64 197 64q133 0 207 -80q73 -79 55 -205l-31 -217q-14 -115 -94 -182q-84 -66 -199 -66zM492 1575l-3 -4q-43 0 -71 -25q-29 -29 -35 -67l-25 -203q-6 -50 19 -78q26 -29 72 -29q43 0 71 25
q29 29 35 68l27 202q6 49 -19 80t-71 31z" />
    <glyph glyph-name="four.superior" unicode="&#x2074;" horiz-adv-x="675" 
d="M150 1268l325 461h213l-317 -443h139l16 111l179 39l-23 -150h53l-22 -164h-56l-14 -114h-172l14 114h-358z" />
    <glyph glyph-name="five.superior" unicode="&#x2075;" horiz-adv-x="630" 
d="M340 1300l-154 15l93 405h415l-24 -161h-264l-23 -95q36 4 37 4h18q107 0 172 -59q66 -60 66 -154q0 -112 -78 -190q-76 -76 -197 -76q-120 0 -190 64q-74 65 -74 166h185q3 -28 24 -43q24 -17 55 -17q42 0 70 25q27 24 27 65q0 34 -25 56q-28 22 -61 22q-21 0 -39 -6
t-33 -21z" />
    <glyph glyph-name="six.superior" unicode="&#x2076;" horiz-adv-x="636" 
d="M698 1268v-4q0 -112 -84 -193q-83 -80 -202 -80q-111 0 -185 68q-73 67 -73 170q0 58 28 131q29 72 84 133l195 233h215l-207 -239q103 -3 166 -66q63 -60 63 -153zM330 1237l2 2q0 -37 24 -61q25 -25 62 -25q45 0 74 29q28 28 28 73q0 38 -24 62t-62 24q-44 0 -74 -30
t-30 -74z" />
    <glyph glyph-name="seven.superior" unicode="&#x2077;" horiz-adv-x="595" 
d="M483 1556h-290l24 173h506l-21 -148l-346 -573h-211z" />
    <glyph glyph-name="eight.superior" unicode="&#x2078;" horiz-adv-x="669" 
d="M231 1538l-8 2q0 86 72 146q71 59 178 59t174 -55q68 -56 68 -136q0 -49 -25 -94q-24 -44 -74 -74q47 -35 66 -69q23 -44 23 -86q0 -100 -80 -168t-203 -68q-108 0 -193 60q-79 58 -79 153q0 65 34 117q36 55 99 84q-27 27 -39 61q-13 37 -13 68zM385 1530h-2
q0 -32 20 -49q22 -19 56 -19q33 0 63 23q25 22 25 55q0 29 -21 47q-22 19 -55 19q-40 0 -61 -21q-25 -22 -25 -55zM414 1143l-2 -4q50 0 77 24q29 26 29 72q0 37 -24 61q-25 25 -68 25q-45 0 -74 -29q-28 -28 -28 -71q0 -35 24 -56q28 -22 66 -22z" />
    <glyph glyph-name="nine.superior" unicode="&#x2079;" horiz-adv-x="638" 
d="M174 1468q0 112 84 193q83 80 203 80q110 0 184 -68t74 -168q0 -55 -29 -131q-28 -66 -84 -131l-194 -233h-215l206 239q-102 3 -165 66q-64 61 -64 153zM543 1495l-2 -2q0 36 -25 61t-61 25q-45 0 -74 -29t-29 -73q0 -37 25 -62q24 -24 61 -24q44 0 74 30q31 31 31 74z
" />
    <glyph glyph-name="zero.inferior" unicode="&#x2080;" horiz-adv-x="696" 
d="M254 -301l4 2q-133 0 -207 80q-73 79 -55 207l31 219q15 113 92 178q76 64 196 64q133 0 207 -80t56 -205l-31 -217q-14 -116 -94 -183q-83 -65 -199 -65zM309 279l-2 -5q-44 0 -71 -24q-29 -29 -35 -68l-25 -202q-6 -50 19 -78q26 -29 71 -29q44 0 72 25q29 29 35 67
l26 203q6 50 -18 80q-25 31 -72 31z" />
    <glyph glyph-name="one.inferior" unicode="&#x2081;" horiz-adv-x="440" 
d="M227 -289h-178l78 549h-137l63 172h277z" />
    <glyph glyph-name="two.inferior" unicode="&#x2082;" horiz-adv-x="663" 
d="M254 -117l260 -6l-25 -172h-532l23 160l299 225q37 24 57 55q18 27 18 56t-18 47t-49 18q-30 0 -58 -22q-24 -21 -30 -56h-187q21 113 99 185q75 69 188 69t180 -55q68 -56 68 -147q0 -71 -37 -129q-35 -59 -148 -144z" />
    <glyph glyph-name="three.inferior" unicode="&#x2083;" horiz-adv-x="657" 
d="M334 -57l-2 -4q0 37 -25 59q-28 22 -67 22h-66l19 130h73q46 0 66 20q22 22 22 57q0 31 -18 49q-19 19 -51 19q-35 0 -56 -21q-22 -22 -28 -57h-185q18 101 93 164q73 61 182 61t180 -53q68 -53 68 -135q0 -58 -27 -104q-26 -46 -80 -70q41 -24 62 -62q22 -42 22 -84
q0 -100 -76 -167q-77 -68 -202 -68q-130 0 -199 63q-74 65 -74 166h178q3 -35 29 -55q20 -20 66 -20q42 0 69 24t27 66z" />
    <glyph glyph-name="four.inferior" unicode="&#x2084;" horiz-adv-x="675" 
d="M-33 -29l326 461h213l-318 -442h140l16 110l178 39l-22 -149h53l-23 -164h-55l-14 -115h-172l14 115h-358z" />
    <glyph glyph-name="five.inferior" unicode="&#x2085;" horiz-adv-x="628" 
d="M158 4l-154 14l92 406h416l-25 -162h-264l-22 -94q36 4 37 4h18q107 0 172 -59q66 -60 66 -154q0 -112 -78 -190q-76 -76 -197 -76t-190 63q-74 65 -74 166h184q3 -27 25 -43t55 -16q43 0 70 24q26 23 26 66q0 34 -24 55q-30 23 -62 23q-21 0 -39 -6q-16 -5 -32 -21z" />
    <glyph glyph-name="six.inferior" unicode="&#x2086;" horiz-adv-x="636" 
d="M518 -29v-4q0 -111 -84 -192q-83 -80 -203 -80q-111 0 -184 67q-74 68 -74 170q0 55 29 131q30 74 84 134l195 233h215l-207 -240q104 -3 166 -65q63 -60 63 -154zM150 -59l2 2q0 -38 24 -62t62 -24q45 0 73 28q29 29 29 74q0 36 -25 61t-61 25q-43 0 -74 -31
q-30 -30 -30 -73z" />
    <glyph glyph-name="seven.inferior" unicode="&#x2087;" horiz-adv-x="593" 
d="M299 260h-291l25 172h506l-21 -147l-346 -574h-211z" />
    <glyph glyph-name="eight.inferior" unicode="&#x2088;" horiz-adv-x="669" 
d="M49 242l-8 2q0 85 72 145t178 60t174 -56q67 -55 67 -135q0 -50 -24 -94t-74 -74q46 -34 66 -70q22 -42 22 -86q0 -99 -80 -167t-202 -68q-110 0 -193 59q-80 59 -80 154q0 64 35 117q36 55 98 84q-27 27 -39 61t-12 68zM203 233h-2q0 -32 20 -49q21 -18 55 -18
q36 0 64 22q25 22 25 56q0 29 -21 47t-55 18q-42 0 -62 -20q-24 -21 -24 -56zM231 -154l-2 -4q50 0 78 25q29 26 29 72q0 36 -25 61t-67 25q-45 0 -74 -29t-29 -72q0 -33 25 -55q30 -23 65 -23z" />
    <glyph glyph-name="nine.inferior" unicode="&#x2089;" horiz-adv-x="636" 
d="M-8 172q0 112 84 193q82 79 203 79q111 0 184 -67q74 -68 74 -168q0 -55 -29 -131q-28 -66 -84 -131l-195 -234h-215l207 240q-104 3 -166 65q-63 60 -63 154zM360 199l-2 -2q0 37 -24 61q-25 25 -62 25q-44 0 -73 -29t-29 -74q0 -36 25 -61t61 -25q43 0 74 31
q30 30 30 74z" />
    <glyph glyph-name="franc" unicode="&#x20a3;" horiz-adv-x="1806" 
d="M377 0h-266l202 1440h844l-37 -246h-573l-51 -363h526l-33 -243h-528zM1198 1038l246 -2l-19 -139q59 77 140 117q84 41 170 41q23 0 37 -2l43 -6l-35 -240l-51 6q-16 2 -43 2q-127 0 -203 -76q-81 -78 -99 -204l-75 -535h-258z" />
    <glyph glyph-name="Euro" unicode="&#x20ac;" horiz-adv-x="1368" 
d="M524 666l299 4l-26 -181h-305q-3 -120 61 -190t184 -70q107 0 178 68q73 70 91 195h264q-35 -245 -183 -381q-144 -138 -354 -138q-241 0 -381 140q-138 138 -123 372h-147l24 181h146l14 106h-149l24 180h152q24 243 178 379q153 135 381 135q207 0 348 -141t141 -375
h-268q0 120 -65 191t-177 71q-109 0 -178 -69q-72 -72 -90 -191h303l-24 -180h-303z" />
    <glyph glyph-name="uni2113" unicode="&#x2113;" horiz-adv-x="944" 
d="M209 446l-150 -65l35 244l150 69l57 408q24 169 123 268q98 98 244 98t231 -79q86 -80 86 -207q0 -167 -113 -310q-115 -145 -344 -270l-43 -22l-24 -172q-15 -114 12 -160q26 -45 115 -45q40 0 80 12q27 8 84 41l-33 -233q-45 -28 -94 -39q-54 -13 -101 -13
q-190 0 -270 105q-78 103 -51 323zM674 1243l-2 -2q-47 0 -74 -35q-29 -37 -37 -102l-39 -270q113 67 172 147q58 76 58 170q0 47 -21 68q-21 24 -57 24z" />
    <glyph glyph-name="trademark" unicode="&#x2122;" horiz-adv-x="1839" 
d="M573 662h-180v608h-207v170h592v-170h-205v-608zM1028 662h-176v778h201l241 -473l248 473h195v-778h-176v452l-232 -452h-72l-229 458v-458z" />
    <glyph glyph-name="Omega" unicode="&#x2126;" horiz-adv-x="1634" 
d="M645 0l-594 -4l33 244h317q-126 103 -198 237q-68 130 -68 277q0 298 217 503q219 207 535 207q301 0 491 -178q191 -179 191 -446q0 -183 -88 -332q-87 -147 -267 -264h248l-32 -244h-590l41 301q206 86 311 215q104 128 104 299q0 170 -116 283q-120 114 -299 114
q-202 0 -336 -137q-135 -138 -135 -334q0 -131 69 -237q71 -108 209 -197z" />
    <glyph glyph-name="estimated" unicode="&#x212e;" horiz-adv-x="1669" 
d="M879 102l-2 -2q165 0 307 86q141 86 221 236h164q-115 -216 -295 -332q-182 -117 -404 -117q-302 0 -530 220q-221 218 -221 528t221 528q227 219 532 219q333 0 539 -221q207 -227 207 -590h-1129v-413q84 -69 183 -105q98 -37 207 -37zM872 1331q-101 0 -204 -35
q-103 -38 -181 -102v-408h758v418q-76 61 -172 94q-88 33 -201 33z" />
    <glyph glyph-name="uni2153" unicode="&#x2153;" horiz-adv-x="1490" 
d="M424 719h-178l78 549h-138l64 172h276zM1260 1440h221l-1268 -1440h-221zM1190 231l-2 -4q0 38 -25 60q-28 22 -67 22h-66l19 129h73q45 0 66 21q22 22 22 57q0 31 -18 49q-19 19 -51 19q-35 0 -56 -21q-22 -22 -28 -57h-185q18 101 93 164q73 61 182 61t180 -53
q68 -53 68 -135q0 -59 -27 -105q-26 -44 -80 -69q41 -24 62 -62q22 -42 22 -84q0 -101 -76 -168t-202 -67q-130 0 -199 63q-74 65 -74 166h178q3 -35 29 -55q21 -21 66 -21q41 0 69 25q27 24 27 65z" />
    <glyph glyph-name="uni2154" unicode="&#x2154;" horiz-adv-x="1636" 
d="M414 891l260 -6l-25 -172h-532l22 159l299 226q38 26 58 55q18 27 18 55q0 29 -18 47q-19 19 -50 19q-27 0 -57 -23q-25 -22 -31 -55h-186q21 113 98 184q76 70 189 70t180 -55q68 -56 68 -148q0 -71 -37 -129q-34 -57 -148 -143zM1411 1434h221l-1267 -1440h-222z
M1341 225l-2 -4q0 39 -24 60q-28 22 -68 22h-65l18 129h74q44 0 65 21q23 23 23 57q0 30 -19 49t-51 19q-34 0 -55 -21q-23 -23 -29 -57h-184q18 102 92 164q73 61 182 61q110 0 181 -53q67 -52 67 -135q0 -60 -26 -105q-26 -46 -80 -70q40 -24 61 -61q23 -44 23 -84
q0 -101 -76 -168t-203 -67q-129 0 -198 63q-74 65 -74 166h178q3 -35 29 -55q21 -21 65 -21q42 0 70 25q26 23 26 65z" />
    <glyph glyph-name="uni2155" unicode="&#x2155;" horiz-adv-x="1488" 
d="M1260 1440h221l-1268 -1440h-221zM424 719h-178l78 549h-138l64 172h276zM1026 293l-154 14l93 406h415l-24 -162h-264l-23 -94q36 4 37 4h18q106 0 172 -60t66 -153q0 -113 -78 -191q-75 -75 -197 -75q-121 0 -190 63q-74 65 -74 166h185q3 -28 24 -43q22 -16 55 -16
q43 0 70 24t27 66q0 33 -25 55q-28 22 -61 22q-21 0 -39 -6q-20 -7 -33 -20z" />
    <glyph glyph-name="uni2156" unicode="&#x2156;" horiz-adv-x="1624" 
d="M414 891l260 -6l-25 -172h-532l22 159l299 226q38 26 58 55q18 27 18 55q0 29 -18 47q-19 19 -50 19q-27 0 -57 -23q-25 -22 -31 -55h-186q21 113 98 184q76 70 189 70t180 -55q68 -56 68 -148q0 -71 -37 -129q-34 -57 -148 -143zM1401 1434h221l-1268 -1440h-221z
M1169 287l-153 14l92 406h416l-25 -162h-264l-23 -94q36 4 37 4h19q106 0 172 -60q65 -59 65 -153q0 -113 -78 -191q-76 -76 -196 -76q-121 0 -191 64q-73 64 -73 166h184q3 -27 25 -43q24 -17 55 -17q41 0 69 25q27 24 27 66q0 34 -24 55q-28 22 -62 22q-21 0 -39 -6
q-20 -7 -33 -20z" />
    <glyph glyph-name="uni2157" unicode="&#x2157;" horiz-adv-x="1570" 
d="M1346 1440h221l-1268 -1440h-221zM1112 293l-154 14l93 406h415l-24 -162h-264l-23 -94q36 4 37 4h18q106 0 172 -60t66 -153q0 -113 -78 -191q-75 -75 -196 -75q-122 0 -191 63q-74 65 -74 166h185q3 -28 24 -43q22 -16 56 -16q42 0 69 24t27 66q0 33 -25 55
q-28 22 -61 22q-21 0 -39 -6q-19 -7 -33 -20zM485 940l-2 -4q0 38 -24 59q-30 23 -68 23h-65l18 129h74q45 0 65 20q23 23 23 58q0 30 -19 49q-18 18 -51 18q-35 0 -55 -20q-23 -23 -29 -58h-184q18 102 92 164t182 62t181 -54q67 -52 67 -135q0 -59 -26 -104
q-26 -46 -80 -70q40 -24 61 -61q23 -44 23 -84q0 -101 -76 -168q-77 -68 -203 -68q-129 0 -199 64q-73 64 -73 166h178q3 -36 29 -56q20 -20 65 -20q43 0 70 24q26 23 26 66z" />
    <glyph glyph-name="uni2158" unicode="&#x2158;" horiz-adv-x="1626" 
d="M127 979l326 461h213l-318 -443h139l17 111l178 39l-23 -150h54l-23 -163h-55l-14 -115h-172l14 115h-359zM1393 1440h221l-1268 -1440h-221zM1159 293l-153 14l92 406h415l-24 -162h-264l-23 -94q36 4 37 4h18q107 0 173 -60q65 -59 65 -153q0 -113 -78 -191
q-75 -75 -196 -75q-122 0 -191 63q-74 65 -74 166h185q3 -28 24 -43q22 -16 56 -16q42 0 69 24t27 66q0 33 -25 55q-28 22 -61 22q-21 0 -39 -6q-20 -7 -33 -20z" />
    <glyph glyph-name="uni2159" unicode="&#x2159;" horiz-adv-x="1454" 
d="M1331 260v-4q0 -112 -84 -193q-82 -79 -203 -79q-111 0 -184 67q-74 68 -74 170q0 55 29 131q29 72 84 133l195 234h215l-207 -240q104 -3 166 -65q63 -60 63 -154zM963 229l2 2q0 -37 24 -61q25 -25 62 -25q44 0 73 29t29 74q0 36 -25 61t-61 25q-43 0 -74 -31
q-30 -30 -30 -74zM426 717h-178l78 549h-138l64 172h276zM1262 1438h221l-1268 -1440h-221z" />
    <glyph glyph-name="uni215A" unicode="&#x215a;" horiz-adv-x="1558" 
d="M1436 260v-4q0 -112 -84 -193q-82 -79 -203 -79q-111 0 -184 67q-74 68 -74 170q0 55 29 131q29 72 84 133l194 234h215l-207 -240q104 -3 166 -65q64 -61 64 -154zM1067 229l2 2q0 -36 25 -61t61 -25q45 0 74 29q28 28 28 74q0 37 -24 61q-25 25 -62 25q-42 0 -73 -31
t-31 -74zM1368 1438h221l-1267 -1440h-222zM328 1010l-154 14l92 406h416l-25 -162h-264l-22 -94q36 4 37 4h18q106 0 172 -60t66 -153q0 -113 -78 -191q-76 -76 -197 -76q-120 0 -190 64q-74 65 -74 166h184q3 -27 25 -43q24 -17 55 -17q42 0 70 25q26 23 26 65
q0 35 -24 56q-28 22 -62 22q-21 0 -39 -6t-32 -20z" />
    <glyph glyph-name="uni215B" unicode="&#x215b;" horiz-adv-x="1486" 
d="M1260 1440h221l-1268 -1440h-221zM424 719h-178l78 549h-138l64 172h276zM889 530l-8 2q0 87 71 146t178 59q108 0 175 -55t67 -135q0 -51 -24 -94q-24 -44 -74 -74q44 -33 65 -70q23 -44 23 -86q0 -100 -80 -168q-79 -67 -203 -67q-109 0 -192 59q-80 59 -80 154
q0 63 35 116q36 55 98 84q-27 27 -39 62q-12 34 -12 67zM1042 522h-2q0 -31 21 -49t55 -18q36 0 64 22q24 21 24 55q0 31 -20 48q-21 18 -56 18q-41 0 -61 -20q-25 -22 -25 -56zM1071 135l-2 -4q50 0 78 25q29 26 29 71q0 37 -25 62q-24 24 -68 24q-45 0 -73 -28
q-29 -29 -29 -72q0 -33 25 -55q30 -23 65 -23z" />
    <glyph glyph-name="uni215C" unicode="&#x215c;" horiz-adv-x="1570" 
d="M1350 1440h221l-1268 -1440h-221zM979 530l-8 2q0 87 71 146t179 59q107 0 174 -55t67 -135q0 -51 -24 -94q-24 -44 -74 -74q46 -34 66 -70q22 -42 22 -86q0 -100 -80 -168q-79 -67 -203 -67q-109 0 -192 59q-80 59 -80 154q0 63 35 116q36 55 98 84q-27 27 -39 62
q-12 34 -12 67zM1133 522h-3q0 -31 21 -49t55 -18q36 0 64 22q24 21 24 55q0 31 -20 48q-21 18 -55 18q-42 0 -62 -20q-24 -21 -24 -56zM1161 135l-2 -4q50 0 78 25q29 26 29 71q0 37 -25 62q-24 24 -67 24q-46 0 -74 -28q-29 -29 -29 -72q0 -33 25 -55q30 -23 65 -23z
M481 946l-2 -4q0 38 -24 59q-30 23 -68 23h-65l18 129h74q44 0 65 21q23 23 23 57q0 30 -19 49q-18 18 -51 18q-35 0 -55 -20q-23 -23 -29 -57h-184q18 101 92 163t182 62q109 0 180 -53q68 -53 68 -136q0 -57 -27 -104q-27 -46 -79 -70q40 -24 61 -61q23 -44 23 -84
q0 -101 -76 -168q-77 -68 -203 -68q-129 0 -199 64q-73 64 -73 166h178q3 -36 28 -55q21 -21 66 -21q42 0 70 25q26 23 26 65z" />
    <glyph glyph-name="uni215D" unicode="&#x215d;" horiz-adv-x="1589" 
d="M1366 1440h221l-1268 -1440h-221zM326 1012l-154 14l92 406h416l-25 -162h-264l-22 -94q36 4 37 4h18q106 0 172 -60t66 -153q0 -113 -78 -191q-76 -76 -197 -76q-120 0 -190 64q-74 65 -74 166h184q3 -27 25 -43q24 -17 55 -17q42 0 70 25q26 23 26 66q0 34 -24 55
q-28 22 -62 22q-21 0 -39 -6t-32 -20zM985 522l-8 2q0 86 72 146q71 59 178 59t174 -55t67 -135q0 -51 -24 -95q-23 -42 -74 -73q46 -34 66 -70q22 -42 22 -86q0 -100 -80 -168q-79 -67 -202 -67q-110 0 -193 59q-80 59 -80 154q0 63 35 116q36 55 98 84q-27 27 -39 62
t-12 67zM1139 514h-2q0 -32 20 -49q22 -19 55 -19q34 0 64 23q24 21 24 55q0 30 -20 47q-22 19 -55 19q-41 0 -62 -21q-24 -21 -24 -55zM1167 127l-2 -4q51 0 78 24q29 26 29 72q0 37 -25 62q-24 24 -67 24q-45 0 -74 -29t-29 -71q0 -33 25 -55q30 -23 65 -23z" />
    <glyph glyph-name="uni215E" unicode="&#x215e;" horiz-adv-x="1499" 
d="M500 1268h-291l24 172h506l-20 -148l-346 -573h-211zM1266 1440h221l-1268 -1440h-221zM905 530l-8 2q0 86 72 146q71 59 178 59t174 -55q68 -56 68 -135q0 -49 -25 -94q-24 -44 -74 -74q46 -34 66 -70q22 -42 22 -86q0 -100 -80 -168q-79 -67 -202 -67q-110 0 -193 59
q-80 59 -80 154q0 63 35 116q36 55 98 84q-25 25 -38 62t-13 67zM1059 522h-2q0 -32 20 -49q21 -18 56 -18t63 22q25 22 25 55q0 30 -21 48t-55 18q-42 0 -62 -20q-24 -21 -24 -56zM1087 135l-2 -4q50 0 78 25q29 26 29 71q0 37 -25 62q-24 24 -67 24q-46 0 -74 -28
q-29 -29 -29 -72q0 -33 25 -55q30 -23 65 -23z" />
    <glyph glyph-name="uni215F" unicode="&#x215f;" horiz-adv-x="1433" 
d="M461 719h-178l77 549h-137l64 172h276zM1292 1440h221l-1267 -1440h-221z" />
    <glyph glyph-name="partialdiff" unicode="&#x2202;" horiz-adv-x="1243" 
d="M381 1307l27 233q379 -38 569 -240t190 -571q0 -337 -170 -549q-170 -209 -442 -209q-217 0 -362 142q-146 143 -146 346q0 218 154 375t364 157q124 0 217 -43q95 -44 154 -127q-21 207 -162 330q-140 122 -393 156zM891 510l-4 -6q0 114 -80 188t-201 74
q-132 0 -221 -86q-90 -87 -90 -213q0 -112 80 -186t203 -74q133 0 221 88q92 89 92 215z" />
    <glyph glyph-name="Delta" unicode="&#x2206;" horiz-adv-x="1341" 
d="M1229 197l-27 -197h-1212l28 197l635 1243h289zM760 1126l-438 -886h628z" />
    <glyph glyph-name="product" unicode="&#x220f;" horiz-adv-x="1546" 
d="M455 0h-283l168 1194h-170l31 246h1396l-32 -246h-170l-166 -1194h-283l166 1194h-491z" />
    <glyph glyph-name="summation" unicode="&#x2211;" horiz-adv-x="1236" 
d="M184 1251l27 189h1051l-33 -246h-715l307 -438l-422 -510h715l-33 -246h-1065l23 174l498 584z" />
    <glyph glyph-name="minus" unicode="&#x2212;" horiz-adv-x="1167" 
d="M139 616v203h938v-203h-938z" />
    <glyph glyph-name="uni2215" unicode="&#x2215;" horiz-adv-x="323" 
d="M711 1440h221l-1268 -1440h-221z" />
    <glyph glyph-name="uni2219" unicode="&#x2219;" horiz-adv-x="878" 
d="M735 750h2q0 -110 -75 -185q-76 -76 -191 -76t-188 76q-74 77 -74 185q0 114 74 188t188 74q117 0 191 -74q73 -73 73 -188z" />
    <glyph glyph-name="radical" unicode="&#x221a;" horiz-adv-x="1189" 
d="M645 0h-289l-135 741h-153l32 226h344l101 -613l483 1086h272z" />
    <glyph glyph-name="infinity" unicode="&#x221e;" horiz-adv-x="1642" 
d="M1550 567h-2q0 -169 -116 -282q-121 -115 -273 -115q-107 0 -198 55q-90 56 -160 164q-98 -118 -185 -172q-80 -51 -198 -51q-138 0 -234 96q-94 94 -94 240q0 168 117 282q121 115 274 115q110 0 201 -55q97 -57 160 -162q99 114 190 166q95 53 191 53q139 0 233 -94
t94 -240zM465 696l-4 -4q-73 0 -121 -51q-49 -52 -49 -129q0 -65 41 -106q39 -39 104 -39q71 0 127 36q57 34 129 127q-59 93 -110 129q-52 37 -117 37zM1341 543h2q0 70 -38 108q-41 41 -105 41q-65 0 -123 -37q-61 -42 -127 -123q61 -96 113 -135q49 -37 108 -37
q70 0 121 54q49 52 49 129z" />
    <glyph glyph-name="integral" unicode="&#x222b;" horiz-adv-x="847" 
d="M637 1145l-172 -1231q-27 -195 -125 -285q-100 -92 -272 -92q-55 0 -99 8q-39 7 -100 25l29 223q35 -12 71 -18q34 -6 66 -6q74 0 121 41q43 40 55 127l172 1228q27 195 125 287q100 92 272 92q55 0 99 -8q39 -7 98 -25l-31 -225q-8 2 -21 6t-23.5 6.5t-20.5 4.5
q-37 6 -70 6q-80 0 -119 -39q-43 -40 -55 -125z" />
    <glyph glyph-name="approxequal" unicode="&#x2248;" horiz-adv-x="1167" 
d="M657 1024h-12q72 -30 98 -37q27 -8 68 -8q66 0 113 27q47 26 104 104v-229q-29 -51 -92 -86q-56 -33 -137 -33q-42 0 -94 10q-46 10 -113 43q-62 33 -100 43q-45 10 -78 10q-69 0 -127 -34q-55 -33 -103 -105v221q26 51 97 92t145 41q48 0 98 -12q37 -9 133 -47zM645 614
h-12q66 -28 98 -36q30 -9 68 -9q65 0 112 27q49 27 105 104v-229q-29 -51 -92 -86q-56 -33 -138 -33q-42 0 -94 10q-40 9 -112 44q-61 33 -101 43q-45 10 -78 10q-68 0 -127 -35q-54 -32 -102 -105v222q27 52 96 92q71 41 146 41q48 0 98 -12q29 -8 133 -48z" />
    <glyph glyph-name="notequal" unicode="&#x2260;" horiz-adv-x="1167" 
d="M457 215h-205l92 178h-205v205h310l122 238h-432v204h537l92 179h205l-92 -179h196v-204h-301l-123 -238h424v-205h-528z" />
    <glyph glyph-name="lessequal" unicode="&#x2264;" horiz-adv-x="1167" 
d="M1004 326l-859 389v205l859 389v-248l-541 -244l541 -244v-247zM145 6v205h859v-205h-859z" />
    <glyph glyph-name="greaterequal" unicode="&#x2265;" horiz-adv-x="1167" 
d="M178 326v247l541 244l-541 244v248l858 -389v-205zM1036 6h-858v205h858v-205z" />
    <glyph glyph-name="lozenge" unicode="&#x25ca;" horiz-adv-x="1259" 
d="M573 -27l-479 775l486 718h159l486 -718l-480 -775h-172zM659 1184l-297 -436l297 -482l297 482z" />
    <glyph glyph-name="zero.denominator" unicode="&#xf655;" horiz-adv-x="696" 
d="M295 -12l4 2q-133 0 -207 80q-73 79 -55 206l31 220q15 113 92 178q75 63 196 63q133 0 207 -80q73 -79 55 -204l-30 -217q-14 -116 -94 -183q-83 -65 -199 -65zM350 567l-2 -4q-45 0 -72 -24q-28 -28 -34 -68l-25 -203q-6 -50 19 -78t71 -28q45 0 72 24q29 29 35 68
l26 203q6 50 -18 80t-72 30z" />
    <glyph glyph-name="one.denominator" unicode="&#xf656;" horiz-adv-x="440" 
d="M268 0h-178l78 549h-137l63 172h277z" />
    <glyph glyph-name="two.denominator" unicode="&#xf657;" horiz-adv-x="663" 
d="M295 172l260 -6l-25 -172h-532l22 160l299 225q38 26 58 55q18 27 18 55q0 30 -18 48t-49 18q-28 0 -58 -23q-24 -21 -30 -55h-187q21 113 99 185q75 69 188 69t180 -55q68 -56 68 -148q0 -71 -37 -129q-34 -57 -148 -143z" />
    <glyph glyph-name="three.denominator" unicode="&#xf658;" horiz-adv-x="657" 
d="M375 231l-2 -4q0 38 -25 60q-28 22 -67 22h-66l18 129h74q45 0 66 21q22 22 22 57q0 31 -18 49q-19 19 -51 19q-35 0 -56 -21q-22 -22 -28 -57h-185q18 101 93 164q73 61 182 61t180 -53q68 -53 68 -135q0 -59 -27 -105q-26 -44 -80 -69q41 -24 62 -62q22 -42 22 -84
q0 -101 -76 -168t-202 -67q-130 0 -199 63q-74 65 -74 166h178q3 -35 29 -55q21 -21 66 -21q41 0 69 25q27 24 27 65z" />
    <glyph glyph-name="four.denominator" unicode="&#xf659;" horiz-adv-x="675" 
d="M8 260l326 461h213l-318 -442h140l16 110l178 39l-22 -149h53l-23 -164h-55l-14 -115h-172l14 115h-358z" />
    <glyph glyph-name="five.denominator" unicode="&#xf65a;" horiz-adv-x="630" 
d="M199 293l-154 14l92 406h416l-25 -162h-264l-22 -94q36 4 37 4h18q106 0 172 -60t66 -153q0 -113 -78 -191q-75 -75 -197 -75q-121 0 -190 63q-74 65 -74 166h184q3 -27 25 -43t55 -16q43 0 70 24q26 23 26 66q0 34 -24 55q-28 22 -62 22q-21 0 -39 -6t-32 -20z" />
    <glyph glyph-name="six.denominator" unicode="&#xf65b;" horiz-adv-x="634" 
d="M555 260v-4q0 -112 -84 -193q-82 -79 -203 -79q-111 0 -184 67q-74 68 -74 170q0 55 29 131q29 72 84 133l194 234h215l-206 -240q104 -3 166 -65q63 -60 63 -154zM186 229l2 2q0 -36 25 -61t61 -25q45 0 74 29t29 74q0 36 -25 61t-61 25q-43 0 -74 -31t-31 -74z" />
    <glyph glyph-name="seven.denominator" unicode="&#xf65c;" horiz-adv-x="595" 
d="M342 549h-291l25 172h506l-21 -148l-346 -573h-211z" />
    <glyph glyph-name="eight.denominator" unicode="&#xf65d;" horiz-adv-x="669" 
d="M90 530l-8 2q0 86 72 146q71 59 178 59t174 -55t67 -135q0 -51 -24 -94q-24 -44 -74 -74q46 -34 66 -70q22 -42 22 -86q0 -100 -80 -168q-79 -67 -202 -67q-110 0 -193 59q-80 59 -80 154q0 63 35 116q36 55 98 84q-27 27 -39 62t-12 67zM244 522h-2q0 -32 20 -49
q21 -18 55 -18q36 0 64 22q25 22 25 55q0 30 -21 48t-55 18q-42 0 -62 -20q-24 -21 -24 -56zM272 135l-2 -4q50 0 78 25q29 26 29 71q0 37 -25 62q-24 24 -67 24q-46 0 -74 -28q-29 -29 -29 -72q0 -33 25 -55q30 -23 65 -23z" />
    <glyph glyph-name="nine.denominator" unicode="&#xf65e;" horiz-adv-x="638" 
d="M33 461q0 111 84 192q83 80 202 80q112 0 185 -67q74 -68 74 -168q0 -55 -29 -131q-28 -66 -84 -131l-195 -234h-215l207 240q-104 3 -166 65q-63 60 -63 154zM401 487l-2 -2q0 38 -24 62t-62 24q-45 0 -73 -28q-29 -29 -29 -74q0 -36 25 -61t61 -25q43 0 74 31
q30 30 30 73z" />
    <glyph glyph-name="zero.numerator" unicode="&#xf661;" horiz-adv-x="698" 
d="M395 707l4 2q-133 0 -206 79q-74 80 -56 207l31 219q15 114 92 179q75 63 197 63q133 0 207 -80q73 -79 55 -205l-31 -217q-14 -115 -94 -182q-83 -65 -199 -65zM451 1286l-2 -4q-44 0 -72 -25q-29 -29 -35 -67l-25 -203q-6 -50 19 -78t72 -28q44 0 71 24q29 29 35 68
l27 203q6 48 -19 79t-71 31z" />
    <glyph glyph-name="one.numerator" unicode="&#xf662;" horiz-adv-x="438" 
d="M367 719h-179l78 549h-137l64 172h276z" />
    <glyph glyph-name="two.numerator" unicode="&#xf663;" horiz-adv-x="665" 
d="M397 891l260 -6l-24 -172h-533l23 159l299 226q37 24 57 55q19 29 19 55q0 28 -19 47t-49 19q-27 0 -57 -23q-25 -22 -31 -55h-186q21 113 98 184q76 70 188 70q114 0 181 -55t67 -148q0 -71 -37 -129q-35 -59 -147 -143z" />
    <glyph glyph-name="three.numerator" unicode="&#xf664;" horiz-adv-x="657" 
d="M475 950l-2 -4q0 39 -24 60q-28 22 -68 22h-66l19 129h74q44 0 65 21q23 23 23 57q0 30 -19 49t-51 19q-34 0 -55 -21q-23 -23 -29 -57h-184q18 102 92 164q73 61 182 61t180 -53q68 -53 68 -135q0 -58 -27 -105q-26 -46 -80 -70q42 -25 62 -61q22 -42 22 -84
q0 -102 -75 -168q-76 -67 -203 -67q-130 0 -199 63q-74 65 -74 166h179q3 -36 28 -55q21 -21 66 -21q42 0 70 25q26 23 26 65z" />
    <glyph glyph-name="four.numerator" unicode="&#xf665;" horiz-adv-x="675" 
d="M109 979l325 461h213l-317 -443h139l16 111l179 39l-23 -150h53l-22 -163h-56l-14 -115h-172l14 115h-358z" />
    <glyph glyph-name="five.numerator" unicode="&#xf666;" horiz-adv-x="630" 
d="M299 1012l-154 14l93 406h415l-24 -162h-264l-23 -94q36 4 37 4h18q106 0 172 -60t66 -153q0 -113 -78 -191q-76 -76 -197 -76q-120 0 -190 64q-74 65 -74 166h185q3 -28 24 -43q24 -17 55 -17q42 0 70 25q27 24 27 66q0 33 -25 55q-28 22 -61 22q-21 0 -39 -6
q-20 -6 -33 -20z" />
    <glyph glyph-name="six.numerator" unicode="&#xf667;" horiz-adv-x="636" 
d="M657 979v-4q0 -112 -84 -193q-83 -80 -202 -80q-111 0 -185 68q-73 67 -73 170q0 58 28 131q29 72 84 133l195 234h215l-207 -240q104 -3 166 -65q63 -60 63 -154zM289 948l2 2q0 -37 24 -61q25 -25 62 -25q45 0 74 29q28 28 28 74q0 37 -24 61q-25 25 -62 25
q-43 0 -74 -31q-30 -30 -30 -74z" />
    <glyph glyph-name="seven.numerator" unicode="&#xf668;" horiz-adv-x="595" 
d="M442 1268h-290l24 172h506l-20 -148l-347 -573h-211z" />
    <glyph glyph-name="eight.numerator" unicode="&#xf669;" horiz-adv-x="669" 
d="M190 1249l-8 2q0 86 72 146q71 59 178 59t174 -55q68 -56 68 -135q0 -50 -25 -95q-23 -42 -74 -73q46 -34 66 -70q23 -44 23 -86q0 -100 -80 -168q-79 -67 -203 -67q-110 0 -193 59q-79 58 -79 154q0 64 34 116q36 55 99 84q-27 27 -39 62q-13 37 -13 67zM344 1241h-2
q0 -32 20 -49q21 -18 56 -18t63 22q25 22 25 55q0 29 -21 47q-22 19 -55 19q-40 0 -61 -21q-25 -22 -25 -55zM373 854l-2 -4q51 0 78 24q28 25 28 72q0 38 -24 62t-68 24q-46 0 -74 -28t-28 -72q0 -34 24 -55q30 -23 66 -23z" />
    <glyph glyph-name="nine.numerator" unicode="&#xf66a;" horiz-adv-x="636" 
d="M133 1180q0 111 84 192q83 80 203 80q110 0 184 -68t74 -167q0 -56 -29 -132q-28 -66 -84 -131l-194 -233h-215l206 240q-103 3 -165 65q-64 61 -64 154zM502 1206l-2 -2q0 37 -25 62q-24 24 -61 24q-46 0 -74 -28q-29 -29 -29 -74q0 -37 25 -62q24 -24 61 -24
q43 0 74 31t31 73z" />
    <glyph glyph-name="commaaccent" unicode="&#xf6c3;" horiz-adv-x="409" 
d="M322 -307l-107 -242h-137l84 180q-42 16 -66 50q-24 35 -24 77q0 60 37 97q36 36 96 36t96 -36q37 -37 37 -95q0 -2 -4 -30q-3 -17 -12 -37z" />
    <glyph glyph-name="uniF8FF" unicode="&#xf8ff;" horiz-adv-x="2945" 
d="M1518 1071v-74h63q6 0 18 -4q7 -3 7 -16v-55q0 -12 -7 -19q-6 -6 -18 -6h-63v-158q0 -17 12 -26q8 -8 37 -8h20q12 0 19 -7q6 -6 6 -18v-55q0 -13 -6 -19t-19 -6h-39q-80 0 -123 29q-36 26 -36 96v172h-35q-13 0 -19 6t-6 19v51q0 2 4 14q2 7 19 10l32 2h2v74q0 12 7 19
q6 6 18 6h80q14 0 20 -6q7 -7 7 -21zM717 999l82 -4q12 0 18 -6t6 -18v-13q34 25 62 35q37 11 59 11q33 0 62 -13q28 -13 43 -39q43 34 63 41q32 13 68 13q53 0 84 -31q30 -30 30 -80v-270q0 -13 -6 -19t-20 -6h-78q-15 0 -21 6t-6 19v237q0 21 -6 27t-22 6q-23 0 -39 -8
q-13 -7 -39 -25v-239q0 -13 -6 -19t-19 -6h-78q-14 0 -20 6t-6 19v237q0 21 -6 27t-25 6q-23 0 -39 -8q-18 -7 -37 -21v-239q0 -7 -4 -19q-3 -6 -16 -6h-84q-13 0 -19 6t-6 19v350q0 12 6 18t19 6zM2087 995h74q14 0 20 -6t6 -18l2 -15q33 26 60 35q33 10 61 10q58 0 88 -30
q31 -31 31 -90v-164q0 -58 -31 -94q-29 -33 -88 -33q-28 0 -61 10q-28 9 -56 31v-170q0 -13 -6 -19t-18 -6h-82q-13 0 -19 6t-6 19v510q0 12 6 18t19 6zM463 1004l-2 -3q83 0 127 -30q43 -30 43 -94v-89q0 -12 -6 -18t-19 -6h-190v-47q0 -18 12 -27q8 -8 37 -8q20 0 37 10
q12 9 12 29v2q0 12 6 18q7 7 19 7h65q12 0 19 -7q6 -6 6 -18v-6q0 -64 -41 -94q-42 -31 -123 -31q-85 0 -129 33q-45 33 -45 94v162q0 62 43 92q45 31 129 31zM2660 1001l-6 -2q84 0 127 -30t43 -95v-88q0 -12 -6 -18t-18 -6h-193v-47q0 -18 12 -27q8 -8 37 -8q20 0 37 10
q12 9 12 29v2q0 11 7 18q6 6 18 6h66q12 0 18 -6t6 -18v-6q0 -65 -39 -94q-42 -31 -123 -31q-88 0 -127 33q-43 34 -43 94v162q0 62 43 92t129 30zM1757 969l35 -146q6 -14 10 -45q1 -6 2 -13l1.5 -10.5t0.5 -6.5q3 3 9 26q3 8 6 24t6 23l49 148q3 16 10 18q12 4 17 4h75
q15 0 21 -6q6 -9 4 -16l-172 -510q-3 -11 -10 -17q-6 -6 -17 -6h-57q-15 0 -21 6t-2 17l33 121l-133 389q-4 11 2 16q6 6 23 6h82q4 0 16 -4q7 -2 10 -18zM444 903v-4q-28 0 -36 -8q-13 -10 -13 -27v-22h99v22q0 19 -13 29q-17 10 -37 10zM2644 899l2 -4q-29 0 -37 -8
q-12 -9 -12 -27v-22h96v22q0 20 -12 29q-17 10 -37 10zM2251 686l2 2q18 0 26 8q9 9 9 27v127q0 16 -9 22q-11 7 -26 7q-13 0 -31 -7q-9 -2 -45 -24v-129q10 -5 21.5 -11t17.5 -9.5t10 -6.5q12 -6 25 -6zM1149 459l-4 -84h96q6 0 6 -2v-6v-17q0 -6 -2 -8t-6 -2h-96v-254
q0 -33 24 -51q25 -19 78 -19h12q5 0 7 -2q4 -4 4 -6v-14q0 -4 -2 -6t-6 -2h-19q-66 0 -102 22q-31 22 -31 74v258h-51q-4 0 -6 2t-2 8v15q0 4 2 6l6 6h51v84v8q0 2 6 2h23l6 -6zM834 383l-9 2q69 0 105 -25q35 -24 35 -73v-101q0 -4 -2 -6t-7 -2h-233v-98q0 -33 25 -49
q31 -17 77 -17q43 0 74 17q25 16 25 49v16q0 4 2 6t12 2h18q7 0 9 -2t2 -6v-18q0 -52 -35 -76q-36 -25 -105 -25q-68 0 -104 25q-35 24 -35 74v209q0 49 37 73q39 25 109 25zM313 371l6 -43q38 27 68 37q35 12 68 12q52 0 80 -25t28 -67v-295q0 -4 -2 -6t-6 -2h-23h-6
q-2 0 -2 10v287q0 33 -20 47q-22 16 -62 16q-36 0 -71 -12t-56 -33v-303q0 -4 -2 -6t-6 -2h-22q-7 0 -9 2t-2 8v375q0 4 2 6t9 2h18q6 0 8 -2t2 -6zM831 342h-2q-46 0 -75 -16q-25 -16 -25 -50v-73h201v73q0 34 -25 50q-29 16 -74 16zM145 49v-61q0 -6 -2 -8q-3 -3 -8 -3
h-22q-4 0 -7 3q-2 2 -2 8v61q0 6 2 8t7 2h22q6 0 8 -2t2 -8z" />
    <glyph glyph-name="f_f" unicode="&#xfb00;" horiz-adv-x="1476" 
d="M532 809l-106 -805h-258l113 809h-175l33 229h172l19 127q28 193 127 285q94 94 268 94q58 0 102 -8q49 -9 99 -24l-31 -224l-68 17q-38 6 -69 6q-72 0 -119 -41q-43 -40 -55 -127l-15 -107h447l16 127q24 189 123 283q104 96 275 96q54 0 98 -8q39 -7 98 -25l-31 -223
l-67 17q-38 6 -70 6q-72 0 -119 -41q-43 -40 -55 -127l-14 -107h250l-33 -229h-248l-115 -809h-258l113 809h-447z" />
    <glyph glyph-name="fi" unicode="&#xfb01;" horiz-adv-x="1327" 
d="M532 809l-112 -813h-258l112 809h-174l33 229h172l19 127q28 193 127 285q94 94 268 94q45 0 92 -6q51 -6 92 -21l-31 -223l-59 17q-30 6 -59 6q-72 0 -119 -41q-43 -40 -55 -127l-15 -107h248l-33 -229h-248zM999 1350l-6 -2q0 69 47 116q45 45 123 45q76 0 121 -45
q47 -47 47 -116q0 -72 -45 -117t-119 -45q-73 0 -120 47q-48 48 -48 117zM1100 -6h-258l147 1038h256z" />
    <glyph glyph-name="fl" unicode="&#xfb02;" horiz-adv-x="1327" 
d="M532 809l-112 -813h-258l112 809h-174l33 229h172l19 127q28 193 127 285q94 94 268 94q45 0 92 -6q51 -6 92 -21l-31 -223l-59 17q-30 6 -59 6q-72 0 -119 -41q-43 -40 -55 -127l-15 -107h248l-33 -229h-248zM1063 1513h256l-213 -1517h-256z" />
    <glyph glyph-name="f_f_i" unicode="&#xfb03;" horiz-adv-x="2031" 
d="M532 809l-114 -811h-258l112 809h-174l33 229h172l19 127q28 193 127 285q94 94 268 94q58 0 102 -8q41 -8 99 -25l-31 -223l-68 17q-38 6 -69 6q-72 0 -119 -41q-44 -41 -56 -127l-14 -107h447l16 127q28 193 127 285q94 94 270 94q45 0 92 -6q48 -6 95 -21l-31 -223
l-57 17q-30 6 -62 6q-72 0 -119 -41q-43 -40 -55 -127l-14 -107h250l-33 -229h-248l-115 -809h-258l113 809h-447zM1702 1352l-6 -2q0 69 47 116q45 45 123 45q76 0 121 -45q47 -47 47 -116q0 -72 -45 -117t-119 -45t-121 47t-47 117zM1802 -4h-258l148 1038h256z" />
    <glyph glyph-name="f_f_l" unicode="&#xfb04;" horiz-adv-x="2031" 
d="M532 809l-114 -811h-258l112 809h-174l33 229h172l19 127q28 193 127 285q94 94 268 94q58 0 102 -8q41 -8 99 -25l-31 -223l-68 17q-38 6 -69 6q-72 0 -119 -41q-44 -41 -56 -127l-14 -107h447l16 127q28 193 127 285q94 94 270 94q45 0 92 -6q48 -6 95 -21l-31 -223
l-57 17q-30 6 -62 6q-72 0 -119 -41q-43 -40 -55 -127l-14 -107h250l-33 -229h-248l-115 -809h-258l113 809h-447zM1765 1516h256l-213 -1518h-256z" />
    <glyph glyph-name="longs_t" unicode="&#xfb05;" horiz-adv-x="1409" 
d="M494 1149l-168 -1151h-258l163 1165q27 195 125 287q100 92 273 92q58 0 102 -8q39 -7 98 -25l-32 -219q-39 13 -62 17q-38 6 -71 6q-78 0 -117 -39q-41 -41 -53 -125zM1401 1036l-29 -233h-274l-64 -441q-12 -87 19 -129q28 -38 114 -38q26 0 68 10q31 8 72 31l-33 -232
q-33 -15 -76 -24q-40 -9 -88 -9q-200 0 -285 99q-85 98 -55 295l68 442h-170l32 229h170l50 324l262 43l-54 -367h273z" />
    <glyph glyph-name="zero.tab" unicode="&#xff10;" 
d="M588 -27l-4 -2q-254 0 -396 160q-141 156 -106 408l61 436q34 235 181 364t370 129q261 0 402 -159q141 -156 106 -414l-59 -428q-35 -237 -180 -365q-147 -129 -375 -129zM682 1210h-2q-115 0 -184 -69q-75 -69 -90 -191l-60 -428q-18 -136 49 -215q68 -80 201 -80
q117 0 188 68q73 73 90 192l60 426q18 138 -49 217q-68 80 -203 80z" />
    <glyph glyph-name="one.tab" unicode="&#xff11;" 
d="M1008 0h-885l31 244h311l135 950h-287l95 246h491l-166 -1196h309z" />
    <glyph glyph-name="two.tab" unicode="&#xff12;" 
d="M1182 1063l-4 -6q0 -137 -68 -252q-73 -118 -270 -275l-371 -288h635l-35 -246h-1038l32 237l646 504q95 73 141 148q43 70 43 147q0 80 -55 129t-150 49q-105 0 -178 -67t-94 -176h-279q29 221 187 360q157 139 383 139q212 0 342 -112q133 -115 133 -291z" />
    <glyph glyph-name="three.tab" unicode="&#xff13;" 
d="M590 -27l8 -10q-230 0 -371 123q-142 121 -145 328h270q3 -90 72 -144q67 -55 174 -55t178 68q72 69 72 168q0 88 -62 141q-65 53 -165 53h-152l29 197h155q102 0 166 55q66 57 66 145q0 76 -56 123q-59 47 -149 47q-87 0 -150 -51t-81 -135h-271q27 187 172 311
q144 123 350 123q210 0 332 -104q123 -105 123 -264q0 -121 -61 -209t-179 -138q95 -47 144 -129t49 -190q0 -191 -143 -322t-375 -131z" />
    <glyph glyph-name="four.tab" unicode="&#xff14;" 
d="M45 504l674 936h315l-672 -928h408l41 287l272 61l-51 -348h148l-35 -240h-148l-36 -272h-263l37 272h-723z" />
    <glyph glyph-name="five.tab" unicode="&#xff15;" 
d="M360 1440l799 -8l-33 -246h-581l-70 -287q68 19 92 23q46 6 90 6q212 0 338 -117q125 -116 125 -307q0 -233 -155 -385q-157 -154 -387 -154q-215 0 -359 129t-153 328h274q9 -91 78 -148q63 -57 164 -57q121 0 194 76q74 77 74 192q0 98 -68 160t-180 62q-68 0 -117 -21
q-53 -21 -90 -61l-213 41z" />
    <glyph glyph-name="six.tab" unicode="&#xff16;" 
d="M594 -27l-2 -2q-212 0 -356 135q-146 137 -146 336q0 107 53 240q54 128 146 240l438 518h324l-433 -494q28 4 29 4h37q205 0 338 -127t133 -319q0 -219 -166 -375q-163 -156 -395 -156zM885 494l-2 -7q0 103 -70 170q-71 68 -178 68q-119 0 -199 -80t-80 -196
q0 -104 72 -173q70 -67 176 -67q115 0 199 84q82 82 82 201z" />
    <glyph glyph-name="seven.tab" unicode="&#xff17;" 
d="M889 1194h-680l35 246h993l-29 -211l-753 -1229h-310z" />
    <glyph glyph-name="eight.tab" unicode="&#xff18;" 
d="M350 801l2 8q-56 50 -84 117q-28 73 -28 143q0 173 131 289q132 117 331 117q200 0 326 -105q125 -104 125 -264q0 -106 -53 -195t-146 -147q80 -58 123 -141q43 -82 43 -179q0 -197 -149 -331q-151 -136 -377 -136q-225 0 -369 117q-143 116 -143 301q0 130 72 240
q70 108 196 166zM477 1053l-2 -4q0 -75 62 -125t151 -50q96 0 154 58q59 59 59 141q0 76 -55 125t-150 49q-96 0 -157 -55q-62 -56 -62 -139zM856 451l-2 -7q0 93 -68 152q-71 59 -182 59q-113 0 -186 -67q-74 -68 -74 -168q0 -94 72 -154q69 -57 178 -57q118 0 188 70
q74 71 74 172z" />
    <glyph glyph-name="nine.tab" unicode="&#xff19;" 
d="M688 1466v-2q212 0 356 -135q146 -137 146 -334q0 -106 -53 -239q-54 -128 -146 -240l-438 -518h-324l433 494q-25 -5 -27 -5h-37q-205 0 -338 127t-133 320q0 219 166 375q171 157 395 157zM395 942h-2q0 -101 70 -168t178 -67q120 0 199 79q80 80 80 197q0 105 -70 172
q-71 68 -174 68q-117 0 -199 -82t-82 -199z" />
    <glyph glyph-name="Lgeminada" horiz-adv-x="2142" 
d="M971 0h-877l203 1440h268l-168 -1194h609zM1044 725l5 -2q0 -72 -52 -121t-129 -49q-76 0 -125 49t-49 121q0 78 49 127t125 49q78 0 127 -49t49 -125zM2044 -2h-877l203 1440h268l-168 -1194h609z" />
    <glyph glyph-name="lgeminada" horiz-adv-x="1425" 
d="M291 1518h256l-213 -1518h-256zM920 725l4 -2q0 -72 -52 -121t-129 -49q-76 0 -125 49t-49 121q0 78 49 127t125 49q78 0 127 -49q50 -50 50 -125zM1165 1516h256l-213 -1518h-256z" />
    <glyph glyph-name="caron.salt" horiz-adv-x="438" 
d="M354 1307l-157 -275h-154l133 234q-41 14 -67 51q-25 39 -25 82q0 61 43 104t106 43q64 0 107 -43t43 -104q0 -22 -6 -43q-2 -15 -23 -49z" />
    <glyph glyph-name="commaaccent.salt" horiz-adv-x="405" 
d="M72 1395l129 213h139l-113 -185q35 -13 60 -45q22 -36 22 -71q0 -58 -37 -95q-36 -36 -96 -36t-96 36q-37 37 -37 97q0 19 6 37z" />
    <glyph glyph-name="acute.case" horiz-adv-x="688" 
d="M328 1563h-254l213 301h254z" />
    <glyph glyph-name="grave.case" horiz-adv-x="688" 
d="M250 1563l-127 301h242l122 -301h-237z" />
    <glyph glyph-name="hungarumlaut.case" horiz-adv-x="733" 
d="M252 1864h242l-187 -301h-239zM567 1864h242l-186 -301h-238z" />
    <glyph glyph-name="circumflex.case" horiz-adv-x="745" 
d="M51 1563l262 301h267l178 -301h-219l-105 172l-151 -172h-232z" />
    <glyph glyph-name="caron.case" horiz-adv-x="745" 
d="M840 1864l-262 -301h-267l-178 301h219l105 -172l151 172h232z" />
    <glyph glyph-name="breve.case" horiz-adv-x="776" 
d="M424 1540l-4 -2q-142 0 -230 88q-92 89 -92 221h189q0 -64 37 -104q36 -39 98 -39q60 0 98 41q37 40 37 104h188q0 -132 -92 -221q-88 -88 -229 -88z" />
    <glyph glyph-name="tilde.case" horiz-adv-x="800" 
d="M467 1780h-6q36 -28 41 -31q12 -6 22 -6q24 0 37 22q13 27 21 74h170q-9 -139 -62 -207q-52 -67 -147 -67q-39 0 -74 12q-28 9 -76 53q-30 30 -43 35q-15 6 -31 6q-32 0 -47 -24q-16 -29 -22 -76h-172q9 142 65 209q56 71 160 71q46 0 78 -14q36 -13 86 -57z" />
    <glyph glyph-name="macron.case" horiz-adv-x="782" 
d="M655 1606h-575l24 174h576z" />
    <glyph glyph-name="dieresis.case" horiz-adv-x="729" 
d="M358 1702q0 -55 -36 -94t-93 -39q-55 0 -94 39t-39 94q0 58 37 98q36 39 96 39q57 0 93 -39t36 -98zM690 1702q0 -54 -37 -94q-36 -39 -92 -39q-59 0 -98 39t-39 94q0 59 39 98t98 39q56 0 92 -39q37 -40 37 -98z" />
    <glyph glyph-name="dotaccent.case" horiz-adv-x="655" 
d="M387 1714h2q0 -61 -43 -104t-104 -43q-60 0 -103 43t-43 104q0 60 43 103t103 43q59 0 102 -43t43 -103z" />
    <glyph glyph-name="ring.case" horiz-adv-x="724" 
d="M532 1759q0 -92 -67 -153q-68 -62 -162 -62q-95 0 -160 62t-65 153t65 156q63 63 160 63q99 0 162 -63q67 -64 67 -156zM221 1759h-2q0 -34 25 -59t59 -25q37 0 62 25q24 24 24 59q0 38 -24 62t-62 24q-33 0 -57 -24q-25 -25 -25 -62z" />
    <glyph glyph-name="G.alt" horiz-adv-x="1638" 
d="M1257 537l-446 -5l29 207h727l-2 -30q-21 -325 -232 -533q-213 -207 -526 -207q-309 0 -510 195q-197 194 -197 491q0 158 60 312q58 147 166 262q115 115 258 176t307 61q266 0 452 -143q189 -145 238 -381h-293q-47 128 -153 197q-109 71 -252 71q-213 0 -357 -159
q-145 -165 -145 -387q0 -189 121 -316q120 -123 313 -123q168 0 283 80q111 77 159 232z" />
    <glyph glyph-name="Gcircumflex.alt" horiz-adv-x="1638" 
d="M565 1563l262 301h267l178 -301h-219l-105 172l-151 -172h-232zM1257 537l-446 -5l29 207h727l-2 -30q-21 -325 -232 -533q-213 -207 -526 -207q-309 0 -510 195q-197 194 -197 491q0 158 60 312q58 147 166 262q115 115 258 176t307 61q266 0 452 -143
q189 -145 238 -381h-293q-47 128 -153 197q-109 71 -252 71q-213 0 -357 -159q-145 -165 -145 -387q0 -189 121 -316q120 -123 313 -123q168 0 283 80q111 77 159 232z" />
    <glyph glyph-name="Gbreve.alt" horiz-adv-x="1638" 
d="M1257 537l-446 -5l29 207h727l-2 -30q-21 -325 -232 -533q-213 -207 -526 -207q-309 0 -510 195q-197 194 -197 491q0 158 60 312q58 147 166 262q115 115 258 176t307 61q266 0 452 -143q189 -145 238 -381h-293q-47 128 -153 197q-109 71 -252 71q-213 0 -357 -159
q-145 -165 -145 -387q0 -189 121 -316q120 -123 313 -123q168 0 283 80q111 77 159 232zM944 1536l-4 -2q-141 0 -229 88q-93 90 -93 221h189q0 -64 37 -104q36 -39 98 -39q60 0 98 41q37 40 37 104h189q0 -132 -92 -221q-88 -88 -230 -88z" />
    <glyph glyph-name="Gdotaccent.alt" horiz-adv-x="1638" 
d="M1075 1714h2q0 -61 -43 -104t-104 -43q-60 0 -103 43t-43 104q0 60 43 103t103 43q59 0 102 -43t43 -103zM1260 537l-447 -5l29 207h727l-2 -30q-21 -325 -232 -533q-213 -207 -526 -207q-309 0 -510 195q-197 194 -197 491q0 158 60 312q58 147 166 262q115 115 258 176
t307 61q267 0 453 -143q188 -144 237 -381h-293q-47 128 -153 197q-109 71 -252 71q-213 0 -357 -159q-145 -165 -145 -387q0 -189 121 -316q120 -123 313 -123q168 0 283 80q112 78 160 232z" />
    <glyph glyph-name="uni0122.alt" horiz-adv-x="1638" 
d="M877 -332l-107 -241h-137l84 180q-43 16 -66 49q-24 34 -24 78q0 59 37 96t96 37t96 -37t37 -94q0 -3 -4 -31q-3 -17 -12 -37zM1257 528l-446 -4l29 207h727l-2 -31q-21 -324 -232 -532q-213 -207 -526 -207q-309 0 -510 195q-197 194 -197 491q0 157 60 311
q58 149 166 263q115 115 258 176t307 61q266 0 452 -143q189 -145 238 -381h-293q-47 127 -153 196q-110 72 -252 72q-212 0 -357 -160q-145 -165 -145 -387q0 -188 121 -315q120 -123 313 -123q168 0 283 80q111 78 159 231z" />
    <glyph glyph-name="a.alt" horiz-adv-x="1349" 
d="M1276 1038l-150 -1042h-241l18 135q-70 -79 -162 -121q-96 -41 -196 -41q-213 0 -344 137t-131 351q0 257 157 434q156 172 398 172q131 0 223 -51q98 -52 156 -150l24 176h248zM340 479v4q0 -118 80 -198t201 -80q139 0 235 96q94 94 94 240q0 127 -80 207
q-79 79 -206 79q-142 0 -232 -100q-92 -103 -92 -248z" />
    <glyph glyph-name="agrave.alt" horiz-adv-x="1349" 
d="M1276 1038l-150 -1042h-241l18 135q-70 -79 -162 -121q-96 -41 -196 -41q-213 0 -344 137t-131 351q0 257 157 434q156 172 398 172q131 0 223 -51q98 -52 156 -150l24 176h248zM340 479v4q0 -118 80 -198t201 -80q139 0 235 96q94 94 94 240q0 127 -80 207
q-79 79 -206 79q-142 0 -232 -100q-92 -103 -92 -248zM604 1167l-127 301h242l123 -301h-238z" />
    <glyph glyph-name="aacute.alt" horiz-adv-x="1349" 
d="M885 1167h-254l213 301h254zM1276 1038l-150 -1042h-241l18 135q-70 -79 -162 -121q-96 -41 -196 -41q-213 0 -344 137t-131 351q0 257 157 434q156 172 398 172q131 0 223 -51q98 -52 156 -150l24 176h248zM340 479v4q0 -118 80 -198t201 -80q139 0 235 96q94 94 94 240
q0 127 -80 207q-79 79 -206 79q-142 0 -232 -100q-92 -103 -92 -248z" />
    <glyph glyph-name="acircumflex.alt" horiz-adv-x="1349" 
d="M401 1167l263 301h266l178 -301h-219l-105 172l-151 -172h-232zM1276 1038l-150 -1042h-241l18 135q-70 -79 -162 -121q-96 -41 -196 -41q-213 0 -344 137t-131 351q0 257 157 434q156 172 398 172q131 0 223 -51q98 -52 156 -150l24 176h248zM340 479v4q0 -118 80 -198
t201 -80q139 0 235 96q94 94 94 240q0 127 -80 207q-79 79 -206 79q-142 0 -232 -100q-92 -103 -92 -248z" />
    <glyph glyph-name="atilde.alt" horiz-adv-x="1349" 
d="M1276 1038l-150 -1042h-241l18 135q-70 -79 -162 -121q-96 -41 -196 -41q-213 0 -344 137t-131 351q0 257 157 434q156 172 398 172q131 0 223 -51q98 -52 156 -150l24 176h248zM340 479v4q0 -118 80 -198t201 -80q139 0 235 96q94 94 94 240q0 127 -80 207
q-79 79 -206 79q-142 0 -232 -100q-92 -103 -92 -248zM823 1389h-6q36 -28 41 -31q12 -6 23 -6q24 0 37 22q12 24 20 74h170q-9 -140 -61 -207t-148 -67q-39 0 -74 12q-27 8 -75 53q-30 30 -43 35q-15 6 -31 6q-31 0 -47 -25q-18 -32 -23 -75h-172q9 141 66 209
q56 71 159 71q46 0 78 -14q36 -13 86 -57z" />
    <glyph glyph-name="adieresis.alt" horiz-adv-x="1349" 
d="M737 1309q0 -55 -37 -95q-35 -38 -92 -38q-56 0 -94 38q-39 39 -39 95q0 58 37 98q36 39 96 39q56 0 92 -39q37 -40 37 -98zM1069 1309q0 -55 -37 -95q-35 -38 -92 -38q-60 0 -98 38q-39 39 -39 95q0 59 39 98t98 39q56 0 92 -39q37 -40 37 -98zM1276 1038l-150 -1042
h-241l18 135q-70 -79 -162 -121q-96 -41 -196 -41q-213 0 -344 137t-131 351q0 257 157 434q156 172 398 172q131 0 223 -51q98 -52 156 -150l24 176h248zM340 479v4q0 -118 80 -198t201 -80q139 0 235 96q94 94 94 240q0 127 -80 207q-79 79 -206 79q-142 0 -232 -100
q-92 -103 -92 -248z" />
    <glyph glyph-name="aring.alt" horiz-adv-x="1349" 
d="M1004 1366q0 -92 -68 -154q-67 -61 -162 -61q-96 0 -160 61q-65 62 -65 154q0 91 65 156q63 63 160 63q99 0 162 -63q68 -65 68 -156zM692 1366h-2q0 -34 25 -59t59 -25q37 0 62 25q24 24 24 59q0 37 -24 61q-25 25 -62 25q-32 0 -57 -25t-25 -61zM1274 1038l-150 -1042
h-241l18 135q-70 -79 -162 -121q-96 -41 -196 -41q-213 0 -344 137t-131 351q0 257 157 434q156 172 398 172q131 0 223 -51q97 -51 155 -150l25 176h248zM338 479v4q0 -118 80 -198t200 -80q140 0 236 96q94 94 94 240q0 127 -80 207q-79 79 -206 79q-142 0 -232 -100
q-92 -103 -92 -248z" />
    <glyph glyph-name="amacron.alt" horiz-adv-x="1349" 
d="M1276 1038l-150 -1042h-241l18 135q-70 -79 -162 -121q-96 -41 -196 -41q-213 0 -344 137t-131 351q0 257 157 434q156 172 398 172q131 0 223 -51q98 -52 156 -150l24 176h248zM340 479v4q0 -118 80 -198t201 -80q139 0 235 96q94 94 94 240q0 127 -80 207
q-79 79 -206 79q-142 0 -232 -100q-92 -103 -92 -248zM1042 1212h-575l25 174h575z" />
    <glyph glyph-name="abreve.alt" horiz-adv-x="1349" 
d="M1276 1038l-150 -1042h-241l18 135q-70 -79 -162 -121q-96 -41 -196 -41q-213 0 -344 137t-131 351q0 257 157 434q156 172 398 172q131 0 223 -51q98 -52 156 -150l24 176h248zM340 479v4q0 -118 80 -198t201 -80q139 0 235 96q94 94 94 240q0 127 -80 207
q-79 79 -206 79q-142 0 -232 -100q-92 -103 -92 -248zM770 1147l-4 -2q-141 0 -229 88q-93 90 -93 221h189q0 -64 37 -104q36 -39 98 -39q60 0 98 41q37 40 37 104h189q0 -131 -93 -221q-88 -88 -229 -88z" />
    <glyph glyph-name="aogonek.alt" horiz-adv-x="1349" 
d="M1276 1038l-152 -1052h-41q-126 -117 -178 -185q-49 -64 -49 -110q0 -33 23 -53q22 -19 61 -19q21 0 45 6l49 17l-22 -168q-31 -17 -66 -25q-31 -8 -76 -8q-100 0 -165 53q-64 52 -64 139q0 88 45 156q44 73 199 209l18 133q-70 -79 -162 -121q-96 -41 -196 -41
q-213 0 -344 137t-131 351q0 257 157 434q156 172 398 172q131 0 223 -51q98 -52 156 -150l24 176h248zM338 469v4q0 -119 80 -199q79 -79 200 -79q140 0 236 96q94 94 94 239q0 127 -80 207t-206 80q-142 0 -232 -100q-92 -103 -92 -248z" />
    </font>
</defs>
</svg>
