<?xml version="1.0" standalone="no"?>
<!DOCTYPE svg PUBLIC "-//W3C//DTD SVG 1.1//EN" "http://www.w3.org/Graphics/SVG/1.1/DTD/svg11.dtd" >
<svg xmlns="http://www.w3.org/2000/svg" xmlns:xlink="http://www.w3.org/1999/xlink" version="1.1">
<metadata>
Created by FontForge 20170731 at Thu Jan  6 10:25:17 2022
 By Aleksey,,,
Copyright (c) 2018 by Eduardo Manso. All rights reserved.
</metadata>
<defs>
<font id="SteradianBold" horiz-adv-x="1239" >
  <font-face 
    font-family="Steradian Bold"
    font-weight="700"
    font-stretch="normal"
    units-per-em="2048"
    panose-1="0 0 0 0 0 0 0 0 0 0"
    ascent="1638"
    descent="-410"
    x-height="1040"
    cap-height="1440"
    bbox="-508 -596 2824 2003"
    underline-thickness="73"
    underline-position="-400"
    unicode-range="U+000D-FF19"
  />
<missing-glyph horiz-adv-x="1779" 
d="M1577 721v-2q0 -299 -211 -510t-506 -211q-297 0 -510 213q-211 211 -211 510t211 510t510 211q295 0 506 -211t211 -510zM197 719l4 -6q0 -269 194 -469q194 -197 467 -197t467 197q195 201 195 471q0 268 -195 469q-193 196 -467 196q-269 0 -469 -194
q-196 -193 -196 -467zM1235 424h-174l-205 203l-203 -203h-176l291 291l-279 278h175l192 -190l193 192h178l-283 -280z" />
    <glyph glyph-name=".notdef" horiz-adv-x="1779" 
d="M1577 721v-2q0 -299 -211 -510t-506 -211q-297 0 -510 213q-211 211 -211 510t211 510t510 211q295 0 506 -211t211 -510zM197 719l4 -6q0 -269 194 -469q194 -197 467 -197t467 197q195 201 195 471q0 268 -195 469q-193 196 -467 196q-269 0 -469 -194
q-196 -193 -196 -467zM1235 424h-174l-205 203l-203 -203h-176l291 291l-279 278h175l192 -190l193 192h178l-283 -280z" />
    <glyph glyph-name=".null" horiz-adv-x="0" 
 />
    <glyph glyph-name="nonmarkingreturn" horiz-adv-x="682" 
 />
    <glyph glyph-name="NULL" horiz-adv-x="0" 
 />
    <glyph glyph-name="NULL" horiz-adv-x="0" 
 />
    <glyph glyph-name="CR" unicode="&#xd;" horiz-adv-x="456" 
 />
    <glyph glyph-name="space" unicode=" " horiz-adv-x="456" 
 />
    <glyph glyph-name="exclam" unicode="!" horiz-adv-x="612" 
d="M406 483h-199l-66 469v488h330v-488zM512 172v-2q0 -82 -59 -141q-58 -58 -148 -58q-89 0 -147 58t-58 141q0 89 58 147q60 60 147 60q90 0 148 -58q59 -59 59 -147z" />
    <glyph glyph-name="quotedbl" unicode="&#x22;" horiz-adv-x="913" 
d="M344 844h-188l-66 545v51h320v-51zM758 844h-189l-65 545v51h319v-51z" />
    <glyph glyph-name="numbersign" unicode="#" horiz-adv-x="1415" 
d="M1241 616l-57 -235h-213l-72 -291h-244l72 291h-211l-74 -291h-243l73 291h-211l58 235h211l53 205h-211l57 236h213l72 291h244l-72 -291h211l74 291h243l-71 -291h209l-58 -236h-211l-53 -205h211zM627 821l-52 -205h211l54 205h-213z" />
    <glyph glyph-name="dollar" unicode="$" horiz-adv-x="1177" 
d="M741 -229l-315 -72v295q-172 44 -266 166q-95 121 -101 315h332q3 -104 60 -158q55 -55 151 -55q80 0 127 41q43 40 43 115q0 50 -31 86q-29 34 -116 61l-187 64q-182 62 -260 159q-80 100 -80 250q0 151 88 258q87 106 242 148v211l311 71v-280q156 -41 246 -156
q89 -118 98 -297h-335q-3 93 -46 142t-118 49q-72 0 -115 -37t-43 -98q0 -52 31 -88q30 -35 116 -62l191 -63q181 -61 262 -158q80 -95 80 -244q0 -188 -94 -301q-95 -114 -271 -149v-213z" />
    <glyph glyph-name="percent" unicode="%" horiz-adv-x="1589" 
d="M774 1110l-2 -4q0 -149 -100 -246q-101 -98 -258 -98q-156 0 -254 98q-99 99 -99 248q0 147 99 246q98 98 256 98q157 0 258 -98q100 -97 100 -244zM1227 1436h239l-1112 -1440h-239zM274 1104l-4 -4q0 -58 41 -99q40 -40 103 -40q60 0 100 40q39 39 39 103q0 65 -39 104
q-40 43 -100 43q-61 0 -101 -43q-39 -39 -39 -104zM1520 324l-2 -5q0 -147 -101 -245q-102 -99 -254 -99q-155 0 -254 99q-98 98 -98 248q0 147 98 245q99 99 256 99q152 0 254 -99q101 -98 101 -243zM1022 317l-4 -4q0 -59 41 -100q39 -39 102 -39q60 0 101 41
q38 38 38 102q0 67 -38 105q-40 43 -101 43q-60 0 -100 -43q-39 -39 -39 -105z" />
    <glyph glyph-name="ampersand" unicode="&#x26;" horiz-adv-x="1458" 
d="M1063 803l330 -6l-265 -437l334 -366h-385l-116 129q-81 -78 -187 -117q-104 -37 -239 -37q-195 0 -330 117t-135 289q0 143 77 252q76 108 220 166q-76 92 -105 165q-31 79 -31 160q0 144 123 246q126 102 289 102q170 0 283 -98q114 -99 114 -235q0 -114 -71 -209
q-71 -93 -201 -156l170 -186zM643 1202l-2 -4q-53 0 -86 -33t-33 -80q0 -31 19 -67q15 -30 67 -88q74 39 109 80t35 86q0 44 -31 75t-78 31zM383 393l2 -2q0 -70 55 -119t135 -49q57 0 115 23q49 21 90 71l-254 283q-78 -41 -110 -90q-33 -44 -33 -117z" />
    <glyph glyph-name="quotesingle" unicode="'" horiz-adv-x="499" 
d="M344 844h-188l-66 545v51h320v-51z" />
    <glyph glyph-name="parenleft" unicode="(" horiz-adv-x="704" 
d="M657 -287l-321 -4q-127 204 -191 451q-63 240 -63 528q0 257 65 508q66 250 189 459h321q-130 -240 -196 -481q-66 -249 -66 -486q0 -257 66 -512q66 -249 196 -463z" />
    <glyph glyph-name="parenright" unicode=")" horiz-adv-x="704" 
d="M47 -287v-2q134 220 197 465q65 251 65 514q0 241 -65 486q-62 235 -197 483h322q121 -205 188 -459q66 -255 66 -508q0 -284 -64 -528q-65 -250 -190 -451h-322z" />
    <glyph glyph-name="asterisk" unicode="*" horiz-adv-x="958" 
d="M356 686l-217 152l144 170l-215 61l90 244l209 -92l-21 219h270l-18 -217l205 90l88 -246l-221 -61l141 -170l-215 -152l-119 205z" />
    <glyph glyph-name="plus" unicode="+" horiz-adv-x="1167" 
d="M707 242h-246v352h-352v246h352v352h246v-352h352v-246h-352v-352z" />
    <glyph glyph-name="comma" unicode="," horiz-adv-x="581" 
d="M262 -346h-221l168 334q-58 21 -92 73q-33 50 -33 111q0 90 57 147q60 60 148 60q90 0 147 -57q60 -60 60 -144q0 -31 -9 -55q-10 -29 -24 -62z" />
    <glyph glyph-name="hyphen" unicode="-" horiz-adv-x="739" 
d="M117 668h506v-273h-506v273z" />
    <glyph glyph-name="period" unicode="." horiz-adv-x="575" 
d="M494 172v-2q0 -81 -60 -141q-58 -58 -147 -58q-90 0 -148 58q-57 57 -57 141q0 90 57 147q60 60 148 60q89 0 147 -58q60 -60 60 -147z" />
    <glyph glyph-name="slash" unicode="/" horiz-adv-x="903" 
d="M539 1659h311l-485 -1946h-312z" />
    <glyph glyph-name="zero" unicode="0" horiz-adv-x="1314" 
d="M1206 932v-422q0 -251 -151 -393t-398 -142q-246 0 -397 142t-151 393v422q0 251 151 393q150 141 397 141q248 0 398 -141q151 -142 151 -393zM653 1159h-4q-104 0 -162 -61q-57 -57 -57 -168v-418q0 -111 57 -168q58 -61 162 -61q111 0 170 59q60 60 60 170v418
q0 112 -58 170q-59 59 -168 59z" />
    <glyph glyph-name="one" unicode="1" horiz-adv-x="786" 
d="M627 0h-326v1143h-270l73 297h523v-1440z" />
    <glyph glyph-name="two" unicode="2" horiz-adv-x="1257" 
d="M1169 0l-1073 2v250l559 522q71 68 99 117q30 53 30 110q0 73 -45 115q-46 43 -125 43q-88 0 -141 -53t-65 -148h-334q12 224 164 367q150 141 393 141q222 0 360 -120q139 -121 139 -320q0 -120 -59 -235q-61 -113 -225 -261l-258 -233h581v-297z" />
    <glyph glyph-name="three" unicode="3" horiz-adv-x="1226" 
d="M72 432l325 -10q12 -73 68 -117q55 -43 141 -43q90 0 142 49q53 50 53 127q0 86 -56 133q-59 47 -155 47h-154v236h160q77 0 123 43q45 42 45 119q0 65 -45 104q-47 41 -123 41q-84 0 -129 -39q-48 -39 -57 -112h-328q12 198 154 325q145 127 368 127q220 0 350 -112
q133 -115 133 -279q0 -109 -43 -188q-44 -79 -129 -129q110 -46 164 -131q56 -86 56 -211q0 -187 -142 -314q-137 -125 -379 -125q-238 0 -381 125t-161 334z" />
    <glyph glyph-name="four" unicode="4" horiz-adv-x="1267" 
d="M47 487l518 953h375l-510 -908h324v256l317 76v-332h141v-290h-141v-242h-317v242h-707v245z" />
    <glyph glyph-name="five" unicode="5" horiz-adv-x="1218" 
d="M219 1440l821 -8v-297h-565l-20 -226q59 19 88 25q36 8 92 8q230 0 362 -129q133 -130 133 -346q0 -215 -147 -356q-148 -142 -373 -142q-222 0 -379 127q-153 129 -174 332h334q15 -75 72 -117q55 -43 135 -43q86 0 152 60q61 58 61 141q0 91 -57 145q-59 56 -154 56
q-68 0 -111 -21q-41 -19 -79 -63l-265 32z" />
    <glyph glyph-name="six" unicode="6" horiz-adv-x="1216" 
d="M623 -27l-2 -4q-231 0 -388 148q-155 146 -155 362q0 91 35 207q37 117 96 207l348 543h379l-338 -486l43 6q14 2 37 2q203 0 348 -139q141 -138 141 -338q0 -212 -157 -360t-387 -148zM401 477l-2 -2q0 -91 62 -156q60 -63 157 -63q95 0 156 61q62 62 62 158
q0 94 -62 156q-61 61 -156 61q-94 0 -155 -61q-62 -62 -62 -154z" />
    <glyph glyph-name="seven" unicode="7" horiz-adv-x="1116" 
d="M696 1143h-645v297h1018v-256l-567 -1184h-363z" />
    <glyph glyph-name="eight" unicode="8" horiz-adv-x="1230" 
d="M1147 426l-4 4q0 -196 -148 -326q-147 -129 -383 -129t-383 129t-147 326q0 106 53 201q52 90 148 153q-65 56 -99 129q-34 75 -34 160q0 169 129 283q124 112 335 112q212 0 336 -112q129 -114 129 -283q0 -79 -35 -160q-35 -78 -98 -135q98 -60 148 -151
q53 -95 53 -201zM440 1047q0 -67 47 -111q46 -43 123 -43t123 43q47 44 47 111q0 66 -47 110q-46 43 -123 43t-123 -43q-47 -44 -47 -110zM399 446l-2 -2q0 -80 60 -137q58 -55 153 -55q96 0 154 55q59 56 59 137q0 86 -57 140q-58 55 -154 55q-95 0 -153 -55
q-60 -57 -60 -138z" />
    <glyph glyph-name="nine" unicode="9" horiz-adv-x="1216" 
d="M594 1466v4q231 0 387 -147q158 -149 158 -362q0 -91 -35 -207q-37 -117 -96 -207l-349 -543h-378l337 485l-43 -6q-14 -2 -36 -2q-203 0 -349 140q-141 138 -141 337q0 212 158 361q156 147 387 147zM813 963h-2q0 91 -61 155t-156 64q-94 0 -156 -62q-61 -61 -61 -155
q0 -95 61 -156t156 -61q97 0 158 61t61 154z" />
    <glyph glyph-name="colon" unicode=":" horiz-adv-x="620" 
d="M516 172v-2q0 -82 -59 -141q-58 -58 -148 -58q-89 0 -147 58t-58 141q0 89 58 147q60 60 147 60q90 0 148 -58q59 -59 59 -147zM516 862v-2q0 -82 -59 -141q-57 -57 -148 -57q-90 0 -147 57q-58 58 -58 141q0 90 58 148q59 59 147 59q91 0 148 -57q59 -59 59 -148z" />
    <glyph glyph-name="semicolon" unicode=";" horiz-adv-x="628" 
d="M291 -346h-221l168 334q-59 21 -93 73q-32 49 -32 111q0 90 57 147q60 60 147 60q91 0 148 -57q59 -59 59 -144q0 -34 -8 -55q-10 -29 -24 -62zM520 864v-2q0 -82 -59 -141q-57 -57 -148 -57q-90 0 -147 57t-57 141q0 91 57 148q59 59 147 59q91 0 148 -57
q59 -59 59 -148z" />
    <glyph glyph-name="less" unicode="&#x3c;" horiz-adv-x="1167" 
d="M121 555v248l891 424v-299l-533 -248l533 -248v-299z" />
    <glyph glyph-name="equal" unicode="=" horiz-adv-x="1167" 
d="M109 821v248h950v-248h-950zM109 365v247h950v-247h-950z" />
    <glyph glyph-name="greater" unicode="&#x3e;" horiz-adv-x="1167" 
d="M1047 805v-248l-891 -424v299l532 248l-532 248v299z" />
    <glyph glyph-name="question" unicode="?" horiz-adv-x="1169" 
d="M395 621l232 178q68 56 96 104q31 54 31 121q0 69 -47 113q-46 43 -129 43q-89 0 -142 -50q-52 -49 -55 -137h-324q6 214 154 344q147 129 385 129q218 0 356 -114q140 -116 140 -301q0 -124 -52 -228q-51 -106 -147 -180l-203 -160h-295v138zM750 170v-2q0 -81 -60 -141
q-58 -58 -147 -58q-90 0 -148 58q-57 57 -57 141q0 90 57 147q60 60 148 60q89 0 147 -58q60 -60 60 -147z" />
    <glyph glyph-name="at" unicode="@" horiz-adv-x="1855" 
d="M778 160l-12 -6q-131 0 -217 92t-86 239q0 181 115 308t276 127q80 0 139 -27q61 -28 101 -80l22 90h256l-102 -426q-21 -95 0 -141q21 -47 90 -47q87 0 145 98q60 105 60 248q0 242 -183 399q-184 158 -460 158q-282 0 -469 -178t-187 -465q0 -285 185 -455
q180 -168 464 -168q82 0 162 13q68 11 127 34v-184q-70 -25 -131 -35q-74 -12 -155 -12q-177 0 -326 57q-160 60 -275 166q-122 110 -186 258q-63 144 -63 328q0 187 63 334q63 153 184 268q118 110 279 170q165 59 332 59q360 0 602 -211q244 -212 244 -530
q0 -244 -119 -387t-332 -143q-102 0 -178 43q-78 45 -105 120q-51 -60 -116 -86q-73 -28 -144 -28zM735 504h2q0 -77 31 -119q29 -39 90 -39q73 0 123 68q49 67 49 164q0 62 -37 102q-38 41 -94 41q-71 0 -117 -64q-47 -65 -47 -153z" />
    <glyph glyph-name="A" unicode="A" horiz-adv-x="1439" 
d="M547 1440h348l516 -1440h-348l-86 258h-533l-86 -258h-331zM887 530l-176 527l-176 -527h352z" />
    <glyph glyph-name="B" unicode="B" horiz-adv-x="1398" 
d="M831 0l-675 -2v1440h598q221 0 356 -99t135 -270q0 -104 -49 -186t-145 -135q131 -43 202 -132q72 -90 72 -210q0 -185 -137 -295q-138 -111 -357 -111zM909 1020l-2 -2q0 71 -51 110q-53 41 -137 41h-238v-313h240q90 0 139 43t49 121zM981 436v-2q0 74 -55 117t-144 43
h-303v-334h303q93 0 146 47t53 129z" />
    <glyph glyph-name="C" unicode="C" horiz-adv-x="1648" 
d="M1241 600l340 -6q-44 -281 -248 -455t-504 -174q-328 0 -540 215q-213 219 -213 535q0 313 213 532q212 215 540 215q286 0 492 -164q203 -162 256 -430h-350q-46 131 -150 209q-110 78 -248 78q-178 0 -294 -125q-117 -126 -117 -313q0 -188 117 -311t294 -123
q155 0 267 86q110 85 145 231z" />
    <glyph glyph-name="D" unicode="D" horiz-adv-x="1564" 
d="M709 0l-549 -2v1440h549q340 0 559 -195q217 -193 217 -520q0 -330 -217 -526q-218 -197 -559 -197zM485 1130l-2 -825h213q206 0 326 111q121 112 121 307q0 192 -119 299q-120 108 -326 108h-213z" />
    <glyph glyph-name="E" unicode="E" horiz-adv-x="1202" 
d="M1098 0h-938v1440h927v-297h-602v-273h553v-280h-553v-293h613v-297z" />
    <glyph glyph-name="F" unicode="F" horiz-adv-x="1163" 
d="M485 0h-325v1440h927v-297h-602v-291h553v-293h-553v-559z" />
    <glyph glyph-name="G" unicode="G" horiz-adv-x="1660" 
d="M1546 760l-8 -758h-270v186q-78 -103 -199 -159t-272 -56q-317 0 -521 213q-202 211 -202 535q0 313 213 532q212 215 538 215q271 0 467 -147q197 -148 256 -389h-358q-45 111 -141 170q-95 59 -222 59q-182 0 -295 -125q-112 -124 -112 -315q0 -200 117 -326
q116 -125 307 -125q144 0 250 62q104 62 145 174h-405v254h712z" />
    <glyph glyph-name="H" unicode="H" horiz-adv-x="1470" 
d="M485 0h-325v1440h325v-553h500v553h326v-1440h-326v580h-500v-580z" />
    <glyph glyph-name="I" unicode="I" horiz-adv-x="645" 
d="M485 0h-325v1440h325v-1440z" />
    <glyph glyph-name="J" unicode="J" horiz-adv-x="1210" 
d="M739 1440l324 -2v-953q0 -225 -145 -370q-144 -144 -375 -144q-225 0 -371 146q-143 143 -143 375h325q3 -101 54 -158q49 -55 139 -55q88 0 141 59q51 57 51 160v942z" />
    <glyph glyph-name="K" unicode="K" horiz-adv-x="1349" 
d="M160 1440h325v-629l482 629h381l-545 -692l553 -748h-406l-465 645v-645h-325v1440z" />
    <glyph glyph-name="L" unicode="L" horiz-adv-x="1091" 
d="M1057 0h-897v1440h325v-1143h572v-297z" />
    <glyph glyph-name="M" unicode="M" horiz-adv-x="1961" 
d="M475 0h-315v1440h401l426 -897l432 897h383v-1440h-315v909l-443 -911h-126l-443 922v-920z" />
    <glyph glyph-name="N" unicode="N" horiz-adv-x="1484" 
d="M467 0h-307v1440h309l549 -891v891h307v-1440h-311l-547 885v-885z" />
    <glyph glyph-name="O" unicode="O" horiz-adv-x="1689" 
d="M78 721l-2 2q0 320 215 532q219 213 551 213q334 0 553 -213q217 -211 217 -532t-217 -535q-218 -215 -553 -215q-330 0 -549 213q-215 212 -215 535zM1270 721q0 186 -121 313t-307 127q-188 0 -307 -125t-119 -315q0 -194 119 -313q120 -123 307 -123t307 123
q121 127 121 313z" />
    <glyph glyph-name="P" unicode="P" horiz-adv-x="1339" 
d="M485 0l-325 -2v1440h575q246 0 402 -129q155 -128 155 -346q0 -225 -155 -359q-156 -135 -402 -135h-250v-469zM717 1151l-232 -2v-397h232q108 0 172 55q63 54 63 149q0 91 -63 142q-65 53 -172 53z" />
    <glyph glyph-name="Q" unicode="Q" horiz-adv-x="1691" 
d="M78 721l-4 2q0 320 215 532q219 213 551 213q334 0 553 -213q217 -211 217 -532q0 -170 -64 -313q-65 -148 -184 -252l229 -324h-354l-129 180q-62 -21 -129 -30q-86 -11 -137 -11q-330 0 -549 213q-215 212 -215 535zM918 281l-316 434h354l213 -299q50 59 74 135
q25 80 25 164q0 192 -121 319t-311 127q-189 0 -308 -125q-120 -126 -120 -319q0 -194 120 -320q119 -125 312 -125q27 0 41 2z" />
    <glyph glyph-name="R" unicode="R" horiz-adv-x="1398" 
d="M485 0l-325 -2v1440h575q245 0 398 -123t153 -330q0 -154 -90 -270q-87 -112 -252 -162l416 -553h-397l-381 524h-97v-524zM719 1155l-234 -2v-369h234q106 0 164 52q61 52 61 137q0 84 -61 133t-164 49z" />
    <glyph glyph-name="S" unicode="S" horiz-adv-x="1282" 
d="M635 1466l2 -10q239 0 383 -123q145 -124 160 -348h-338q-3 91 -56 141t-151 50q-87 0 -139 -37q-54 -39 -54 -99q0 -53 31 -84q30 -30 121 -57l240 -72q189 -56 276 -153q88 -94 88 -246q0 -219 -143 -338q-145 -121 -400 -121q-266 0 -419 129q-153 132 -162 373h332
q3 -103 67 -158t172 -55q111 0 162 39q55 40 55 117q0 51 -33 80q-32 30 -137 65l-233 74q-179 58 -264 155q-82 94 -82 250q0 190 147 310q142 118 375 118z" />
    <glyph glyph-name="T" unicode="T" horiz-adv-x="1167" 
d="M745 0h-325v1143h-385v297h1098v-297h-388v-1143z" />
    <glyph glyph-name="U" unicode="U" horiz-adv-x="1421" 
d="M950 1440h326v-942q0 -229 -160 -377t-405 -148q-244 0 -404 148t-160 377v942h326v-932q0 -102 62 -164q61 -61 165 -61q116 0 183 61t67 164v932z" />
    <glyph glyph-name="V" unicode="V" horiz-adv-x="1382" 
d="M864 0h-348l-477 1440h362l297 -983l303 983h342z" />
    <glyph glyph-name="W" unicode="W" horiz-adv-x="2113" 
d="M795 0h-346l-410 1440h350l254 -967l275 967h301l270 -963l258 963h330l-414 -1440h-344l-260 866z" />
    <glyph glyph-name="X" unicode="X" horiz-adv-x="1400" 
d="M358 0h-366l512 737l-481 703h380l297 -449l306 449h362l-479 -695l526 -745h-389l-336 483z" />
    <glyph glyph-name="Y" unicode="Y" horiz-adv-x="1363" 
d="M848 0h-326v485l-487 955h371l282 -598l299 598h342l-481 -938v-502z" />
    <glyph glyph-name="Z" unicode="Z" horiz-adv-x="1245" 
d="M1161 0h-1079v260l653 883h-635v297h1045v-279l-647 -864h663v-297z" />
    <glyph glyph-name="bracketleft" unicode="[" horiz-adv-x="763" 
d="M692 1659v-287h-227v-1372h227v-287h-538v1946h538z" />
    <glyph glyph-name="backslash" unicode="\" horiz-adv-x="903" 
d="M365 1659l485 -1946h-311l-486 1946h312z" />
    <glyph glyph-name="bracketright" unicode="]" horiz-adv-x="763" 
d="M72 1659h538v-1946h-538v287h227v1372h-227v287z" />
    <glyph glyph-name="asciicircum" unicode="^" horiz-adv-x="1167" 
d="M434 1440h301l381 -858h-328l-204 477l-205 -477h-328z" />
    <glyph glyph-name="underscore" unicode="_" horiz-adv-x="901" 
d="M-2 -166h905v-268h-905v268z" />
    <glyph glyph-name="grave" unicode="`" horiz-adv-x="634" 
d="M256 1163l-174 305h301l168 -305h-295z" />
    <glyph glyph-name="a" unicode="a" horiz-adv-x="1136" 
d="M719 0l-4 117q-45 -65 -127 -107q-75 -37 -170 -37q-152 0 -246 82t-94 215q0 138 90 222q88 82 281 126l256 58v10q0 59 -39 92q-41 35 -105 35q-71 0 -110 -33q-44 -35 -50 -92h-301q9 161 142 270t325 109q208 0 328 -111q119 -110 119 -301v-655h-295zM500 215l-2 -2
q80 0 143 66q61 64 61 147v35l-174 -37q-72 -14 -112 -43q-37 -27 -37 -72q0 -44 31 -69t90 -25z" />
    <glyph glyph-name="b" unicode="b" horiz-adv-x="1345" 
d="M432 0h-299v1518h311v-607q62 74 150 117q90 41 186 41q218 0 357 -154q137 -149 137 -393q0 -238 -139 -395q-139 -154 -357 -154q-109 0 -196 43q-90 44 -150 125v-141zM946 520h-2q0 113 -72 191q-70 73 -184 73t-184 -73q-70 -70 -70 -191q0 -112 72 -190
q71 -74 184 -74t184 74q72 78 72 190z" />
    <glyph glyph-name="c" unicode="c" 
d="M633 1069l-4 -4q213 0 364 -127t178 -330h-309q-21 78 -84 123q-65 47 -147 47q-115 0 -185 -73q-69 -69 -69 -189q0 -108 72 -186q71 -74 184 -74q84 0 149 47q66 47 86 127h308q-27 -201 -179 -332q-150 -129 -364 -129q-242 0 -408 158q-159 156 -159 393t159 393
q156 156 408 156z" />
    <glyph glyph-name="d" unicode="d" horiz-adv-x="1343" 
d="M563 -27l-4 -4q-217 0 -356 154q-137 149 -137 391t139 399q138 156 356 156q105 0 189 -37q87 -37 145 -110v598h311v-1518h-293v152q-66 -90 -153 -136q-86 -45 -197 -45zM391 516h-2q0 -112 72 -190q70 -76 184 -76t184 76q72 78 72 190q0 121 -70 191q-70 73 -184 73
t-184 -73q-72 -78 -72 -191z" />
    <glyph glyph-name="e" unicode="e" 
d="M625 223l-2 -6q72 0 135 29q54 25 90 86h301q-50 -175 -188 -269q-140 -96 -338 -96q-244 0 -400 156q-155 155 -155 393q0 232 159 391q160 160 398 160q244 0 393 -149q151 -151 151 -383v-95h-804q21 -102 90 -159q64 -58 170 -58zM623 811q-92 0 -154 -45
q-64 -46 -92 -125h489q-24 79 -88 125q-62 45 -155 45z" />
    <glyph glyph-name="f" unicode="f" horiz-adv-x="817" 
d="M539 0l-314 -4v764h-157v278h157v88q0 211 101 312q101 104 301 104q30 0 84 -4q33 -2 92 -16v-273q-47 10 -70 13q-46 4 -51 4q-78 0 -111 -33q-32 -32 -32 -107v-84h243v-278h-243v-764z" />
    <glyph glyph-name="g" unicode="g" horiz-adv-x="1292" 
d="M84 -47l303 -2q6 -73 68 -117q61 -43 159 -43q105 0 170 59q62 59 62 160v168q-53 -62 -133 -98q-70 -33 -172 -33q-207 0 -336 141t-129 367q0 224 133 369q131 143 344 143q100 0 178 -37q81 -40 137 -110v120h293v-999q0 -235 -143 -369q-144 -135 -400 -135
q-224 0 -374 117q-151 118 -160 299zM395 557l-2 -4q0 -104 64 -168q65 -68 166 -68q100 0 165 68q66 72 66 170q0 107 -63 170q-65 68 -166 68t-166 -68q-64 -64 -64 -168z" />
    <glyph glyph-name="h" unicode="h" 
d="M446 0l-311 -2v1518h311v-582q51 63 129 98q81 35 166 35q170 0 271 -104q102 -108 102 -279v-684h-311v600q0 89 -43 135q-44 47 -129 47q-87 0 -135 -51q-50 -53 -50 -141v-590z" />
    <glyph glyph-name="i" unicode="i" horiz-adv-x="585" 
d="M98 1343l2 -6q0 82 54 136q53 53 139 53q90 0 141 -51q53 -53 53 -136q0 -79 -55 -131q-51 -51 -141 -51q-86 0 -139 53q-54 54 -54 133zM451 -6h-312v1042h312v-1042z" />
    <glyph glyph-name="j" unicode="j" horiz-adv-x="600" 
d="M489 1352l-2 4q0 -78 -51 -129t-129 -51q-80 0 -131 51t-51 129q0 79 51 127q52 49 131 49q80 0 131 -51t51 -129zM150 1047l305 -5v-1089q0 -211 -99 -313q-100 -103 -301 -103q-29 0 -45 2l-63 6v273q6 -2 24 -2h33q77 0 111 34q35 35 35 109v1088z" />
    <glyph glyph-name="k" unicode="k" horiz-adv-x="1138" 
d="M446 0h-311v1518h311v-891l291 415h353l-338 -464l401 -578h-369l-338 492v-492z" />
    <glyph glyph-name="l" unicode="l" horiz-adv-x="585" 
d="M137 1518h312v-1518h-312v1518z" />
    <glyph glyph-name="m" unicode="m" horiz-adv-x="1867" 
d="M446 0l-309 -10v1042h297v-127q50 73 129 115q77 41 170 41q106 0 185 -43q79 -44 126 -125q56 83 142 127q85 43 192 43q170 0 269 -105q98 -104 98 -278v-684h-311v600q0 86 -43 135t-123 49q-84 0 -129 -51t-45 -141v-590h-312v600q0 86 -43 135t-123 49
q-79 0 -124 -51q-46 -52 -46 -141v-590z" />
    <glyph glyph-name="n" unicode="n" 
d="M446 0l-311 -6v1042h297v-127q53 74 133 115q84 41 176 41q170 0 271 -104q102 -108 102 -279v-684h-311v596q0 90 -43 139t-129 49q-87 0 -135 -51q-50 -53 -50 -141v-590z" />
    <glyph glyph-name="o" unicode="o" horiz-adv-x="1267" 
d="M68 522v-6q0 237 159 393q156 156 408 156q249 0 405 -156q160 -157 160 -389q0 -236 -160 -393q-156 -156 -405 -156q-242 0 -408 158q-159 156 -159 393zM891 514v-2q0 114 -74 188t-186 74q-114 0 -185 -74q-71 -77 -71 -186t71 -186q71 -74 185 -74q112 0 186 74
t74 186z" />
    <glyph glyph-name="p" unicode="p" horiz-adv-x="1345" 
d="M135 -434l-2 1476h297v-149q60 84 152 131q86 45 196 45q218 0 357 -154q137 -149 137 -393q0 -238 -139 -395q-139 -154 -357 -154q-103 0 -184 37q-86 39 -146 111v-555h-311zM946 520h-2q0 113 -72 191q-70 73 -184 73t-184 -73q-70 -70 -70 -191q0 -112 72 -190
q71 -74 184 -74t184 74q72 78 72 190z" />
    <glyph glyph-name="q" unicode="q" horiz-adv-x="1343" 
d="M563 -27v-8q-217 0 -356 154q-137 149 -137 391t139 399q138 156 356 156q110 0 197 -43t153 -127v145h293v-1476h-311v565q-61 -77 -147 -117q-79 -39 -187 -39zM395 512h-2q0 -112 72 -190q70 -76 184 -76q115 0 185 76q71 77 71 190q0 121 -69 190q-71 74 -185 74
q-113 0 -184 -74q-72 -78 -72 -190z" />
    <glyph glyph-name="r" unicode="r" horiz-adv-x="827" 
d="M711 774h-6q-127 0 -195 -80t-68 -221v-471h-311v1042h297v-178q50 95 127 148q74 51 172 51q25 0 35 -2l29 -6v-293q-14 4 -31.5 6t-18.5 2q-6 2 -30 2z" />
    <glyph glyph-name="s" unicode="s" horiz-adv-x="1056" 
d="M532 1069l-6 -10q192 0 308 -90q115 -89 127 -252h-318q0 52 -31 80q-26 26 -92 26q-54 0 -84 -18t-30 -53q0 -39 26 -56q25 -18 105 -34l84 -19q203 -44 278 -119q80 -77 80 -205q0 -165 -119 -256q-121 -92 -325 -92q-226 0 -347 95q-124 93 -133 272h328q0 -64 37 -98
q33 -33 108 -33q63 0 99 22q35 21 35 66q0 40 -27 61q-30 24 -92 35l-101 21q-182 38 -264 114q-80 77 -80 207q0 152 121 244t313 92z" />
    <glyph glyph-name="t" unicode="t" horiz-adv-x="847" 
d="M205 1042l-2 289l311 74v-367h244v-278h-244v-383q0 -66 29 -103q27 -30 96 -30q32 0 74 10q28 7 67 31v-273q-47 -21 -98 -30q-72 -11 -117 -11q-181 0 -270 95q-90 96 -90 288v410h-156v278h156z" />
    <glyph glyph-name="u" unicode="u" horiz-adv-x="1220" 
d="M600 254h-6q82 0 129 53t47 142v591h311v-1042h-295v125q-55 -74 -129 -113t-170 -39q-166 0 -264 107t-98 278v684h311v-596q0 -92 43 -141t121 -49z" />
    <glyph glyph-name="v" unicode="v" horiz-adv-x="1153" 
d="M750 0h-349l-374 1042h329l226 -651l223 651h321z" />
    <glyph glyph-name="w" unicode="w" horiz-adv-x="1783" 
d="M684 0h-313l-346 1042h311l205 -649l204 649h299l207 -651l205 651h303l-346 -1042h-313l-207 621z" />
    <glyph glyph-name="x" unicode="x" horiz-adv-x="1112" 
d="M342 0h-334l363 522l-348 520h350l190 -288l195 288h327l-350 -510l373 -532h-360l-203 297z" />
    <glyph glyph-name="y" unicode="y" horiz-adv-x="1150" 
d="M801 1042h321l-526 -1476h-313l141 403l-399 1073h329l224 -651z" />
    <glyph glyph-name="z" unicode="z" horiz-adv-x="1077" 
d="M1010 0h-944v207l514 557h-482v278h881v-221l-487 -542h518v-279z" />
    <glyph glyph-name="braceleft" unicode="{" horiz-adv-x="768" 
d="M401 737l-4 -14q59 -29 95 -90q30 -59 30 -160v-367q0 -68 25 -104q23 -33 78 -33h30q3 0 31 4v-286q-14 -2 -39 -2h-35q-200 0 -301 98q-100 97 -100 293v383q0 73 -27 108t-86 35h-39v260h39q60 0 86 33q27 34 27 106v281q0 194 102 293q101 98 301 98h35q25 0 39 -2
v-287q-6 1 -12.5 2t-11 2t-7.5 1h-30q-55 0 -78 -33q-25 -36 -25 -105v-264q0 -101 -30 -162q-31 -61 -93 -88z" />
    <glyph glyph-name="bar" unicode="|" horiz-adv-x="620" 
d="M154 1659h311v-1946h-311v1946z" />
    <glyph glyph-name="braceright" unicode="}" horiz-adv-x="768" 
d="M367 737l-5 -10q-63 28 -92 90q-30 61 -30 164v264q0 69 -25 105q-24 34 -78 34h-31q-24 0 -30 -2v287q28 4 39 4h35q200 0 301 -98q102 -99 102 -291v-280q0 -72 27 -107q26 -33 86 -33h39v-260h-39q-60 0 -86 -33q-27 -35 -27 -106v-383q0 -194 -100 -291
q-101 -98 -301 -98h-35q-11 0 -39 4v287q6 -2 31 -2h30q54 0 78 34q25 36 25 105v366q0 101 30 160q36 61 95 90z" />
    <glyph glyph-name="asciitilde" unicode="~" horiz-adv-x="1167" 
d="M645 866l-10 -2q52 -26 108 -39q31 -8 70 -8q70 0 127 31q58 30 111 113v-308q-25 -49 -99 -88q-70 -37 -159 -37q-53 0 -107 13q-53 14 -125 49q-62 30 -110 41q-52 10 -89 10q-74 0 -135 -37q-64 -37 -116 -119v295q36 64 108 105q73 43 160 43q54 0 117 -13
q56 -12 149 -49z" />
    <glyph glyph-name="uni00A0" unicode="&#xa0;" horiz-adv-x="456" 
 />
    <glyph glyph-name="exclamdown" unicode="&#xa1;" horiz-adv-x="589" 
d="M500 870l-4 -2q0 -89 -58 -147q-57 -57 -147 -57q-89 0 -148 59q-57 57 -57 147q0 83 59 142q57 57 148 57q90 0 147 -57q60 -60 60 -142zM389 557l66 -469v-487h-330v487l65 469h199z" />
    <glyph glyph-name="cent" unicode="&#xa2;" horiz-adv-x="1249" 
d="M793 -16l-318 -76v287q-181 49 -291 192t-110 338q0 191 110 334q106 142 293 192v213l311 72v-283q162 -41 267 -155q108 -117 129 -281h-310q-22 79 -83 123q-65 47 -148 47q-113 0 -184 -74q-70 -70 -70 -188q0 -108 72 -186q71 -74 184 -74q85 0 150 47q66 47 86 127
h307q-21 -163 -129 -283q-106 -117 -266 -159v-213z" />
    <glyph glyph-name="sterling" unicode="&#xa3;" horiz-adv-x="1400" 
d="M1307 0l-1213 2v256q73 15 135 92t62 166v12h-195v256h170l-12 109q-2 23 -2 53q0 250 141 385t379 135q241 0 385 -135q146 -137 146 -379h-324q0 103 -51 154q-53 53 -148 53q-94 0 -147 -59t-53 -166q0 -14 4 -64q3 -36 12 -86h330v-256h-308q-3 -60 -24 -122
q-20 -62 -55 -109h768v-297z" />
    <glyph glyph-name="currency" unicode="&#xa4;" horiz-adv-x="1380" 
d="M393 170h-309l242 336q-24 44 -39 96q-13 54 -13 105q0 55 15 104q13 47 43 98l-244 340h307l119 -168q48 23 88 31q58 10 92 10q38 0 90 -10q39 -7 84 -31l119 168h307l-241 -336q31 -60 43 -100q14 -46 14 -106q0 -59 -14 -105q-12 -40 -43 -100l239 -334h-307
l-115 162q-48 -23 -88 -31q-58 -10 -92 -10q-48 0 -94 12q-48 12 -86 33zM690 541l-4 -4q72 0 121 49t49 121q0 71 -49 120q-50 50 -119 50t-119 -50q-49 -49 -49 -118q0 -70 49 -119t121 -49z" />
    <glyph glyph-name="yen" unicode="&#xa5;" horiz-adv-x="1406" 
d="M868 0h-325v248h-375v211h375v26l-33 66h-342v211h233l-346 678h371l283 -598l299 598h342l-349 -678h240v-211h-348l-25 -49v-43h373v-211h-373v-248z" />
    <glyph glyph-name="brokenbar" unicode="&#xa6;" horiz-adv-x="630" 
d="M160 1659h311v-819h-311v819zM160 -287v819h311v-819h-311z" />
    <glyph glyph-name="section" unicode="&#xa7;" horiz-adv-x="1208" 
d="M696 516l-207 74q-225 91 -313 196q-88 101 -88 254q0 186 141 303t363 117q242 0 385 -125q147 -126 156 -340h-324q-3 89 -57 140q-55 49 -150 49q-90 0 -135 -39q-49 -40 -49 -107q0 -61 49 -104q46 -43 244 -129l323 -143v-146h-338zM510 481l201 -86
q239 -103 319 -202q84 -104 84 -246q0 -185 -139 -303q-138 -117 -357 -117q-236 0 -387 127q-146 128 -155 338h323q3 -87 58 -139q56 -50 147 -50q80 0 133 41q49 40 49 109q0 57 -43 100t-249 135l-322 146v147h338z" />
    <glyph glyph-name="dieresis" unicode="&#xa8;" horiz-adv-x="827" 
d="M387 1311h-2q0 -65 -43 -111q-42 -45 -106 -45q-67 0 -109 45q-43 46 -43 111q0 64 43 110q42 45 109 45q66 0 108 -45q43 -46 43 -110zM743 1311h-2q0 -65 -43 -111q-42 -45 -106 -45q-66 0 -111 45t-45 111q0 65 45 110t111 45t108 -45q43 -46 43 -110z" />
    <glyph glyph-name="copyright" unicode="&#xa9;" horiz-adv-x="1650" 
d="M1571 721q0 -309 -219 -528q-220 -220 -527 -220q-306 0 -526 220q-219 219 -219 528q0 307 219 526t526 219q308 0 527 -219t219 -526zM238 721l-5 -2q0 -242 173 -418q171 -174 415 -174q245 0 416 174q172 175 172 418q0 244 -172 416t-414 172q-241 0 -413 -172
t-172 -414zM825 1124v-10q159 0 271 -92t133 -244h-244q-21 56 -63 84q-45 31 -99 31q-77 0 -125 -51q-49 -52 -49 -129t49 -129t127 -52q56 0 101 31q42 29 61 84h244q-22 -154 -133 -246q-107 -94 -271 -94q-184 0 -301 117q-116 116 -116 293q0 175 116 291t299 116z" />
    <glyph glyph-name="ordfeminine" unicode="&#xaa;" horiz-adv-x="733" 
d="M438 932l-6 51q-23 -33 -59 -49q-40 -19 -80 -19q-72 0 -125 41q-49 40 -49 109t47 113q44 44 147 65l115 27v4q0 23 -18 35t-45 12q-30 0 -48 -12q-17 -14 -20 -35h-170q3 82 72 139q67 55 170 55q115 0 172 -57q61 -58 61 -156v-323h-164zM334 1053l-2 -2q35 0 63 28
q27 27 27 62v8l-78 -21q-32 -10 -43 -18q-12 -9 -12 -25q0 -15 12 -24q8 -8 33 -8zM123 797h471v-185h-471v185z" />
    <glyph glyph-name="guillemotleft" unicode="&#xab;" horiz-adv-x="1089" 
d="M289 74l-223 448l223 451h301l-223 -451l223 -448h-301zM713 74l-224 448l224 451h301l-223 -451l223 -448h-301z" />
    <glyph glyph-name="logicalnot" unicode="&#xac;" horiz-adv-x="1167" 
d="M100 588v248h951v-594h-248v346h-703z" />
    <glyph glyph-name="uni00AD" unicode="&#xad;" horiz-adv-x="737" 
d="M115 700h506v-272h-506v272z" />
    <glyph glyph-name="registered" unicode="&#xae;" horiz-adv-x="1214" 
d="M606 438l-4 -2q-214 0 -364 150t-150 362q0 219 150 369q149 149 364 149q220 0 369 -149t149 -369q0 -216 -149 -362q-151 -148 -365 -148zM602 1325v-2q-156 0 -264 -111q-109 -115 -109 -266q0 -155 109 -264t264 -109t264 109t109 264q0 153 -109 268
q-108 111 -264 111zM555 713l-158 -4v475h236q84 0 135 -45q55 -46 55 -117q0 -40 -22 -82q-20 -36 -62 -61l109 -166h-178l-86 135h-29v-135zM614 1053h-63v-90h63q23 0 35 12q13 13 13 35q0 17 -13 30t-35 13z" />
    <glyph glyph-name="macron" unicode="&#xaf;" horiz-adv-x="755" 
d="M676 1198h-594v209h594v-209z" />
    <glyph glyph-name="degree" unicode="&#xb0;" horiz-adv-x="780" 
d="M711 1151l2 -4q0 -131 -92 -223q-93 -93 -226 -93q-131 0 -227 93q-94 91 -94 225q0 133 92 225t227 92q133 0 225 -92q93 -93 93 -223zM262 1147q0 -53 39 -92t92 -39q54 0 90 39q37 40 37 92q0 53 -37 90t-90 37q-52 0 -92 -37q-39 -36 -39 -90z" />
    <glyph glyph-name="plusminus" unicode="&#xb1;" horiz-adv-x="1167" 
d="M707 381h-246v283h-352v245h352v283h246v-283h352v-245h-352v-283zM109 2v248h950v-248h-950z" />
    <glyph glyph-name="twosuperior" unicode="&#xb2;" horiz-adv-x="675" 
d="M614 1008l-544 -13v162l256 229q29 29 41 50q12 24 12 51q0 23 -14 37t-39 14q-27 0 -43 -16t-19 -43h-209q6 108 84 186q77 74 197 74q117 0 188 -62q72 -63 72 -164q0 -61 -31 -118q-33 -56 -116 -133l-66 -60h231v-194z" />
    <glyph glyph-name="threesuperior" unicode="&#xb3;" horiz-adv-x="671" 
d="M51 1227h203q5 -31 25 -47q24 -17 49 -17q34 0 53 19q18 18 18 53t-24 53q-25 19 -70 19h-59v143h53q39 0 61 16q21 15 21 47q0 27 -16 43q-17 17 -43 17q-27 0 -46 -19q-17 -17 -20 -49h-203q6 105 80 170q78 66 195 66q120 0 190 -58q72 -60 72 -143q0 -58 -21 -92
q-21 -37 -63 -62q53 -24 80 -65q26 -39 26 -102q0 -97 -75 -160q-76 -64 -205 -64q-123 0 -197 62q-75 63 -84 170z" />
    <glyph glyph-name="acute" unicode="&#xb4;" horiz-adv-x="634" 
d="M379 1163h-295l168 305h301z" />
    <glyph glyph-name="mu" unicode="&#xb5;" horiz-adv-x="1255" 
d="M623 254l-7 -4q82 0 129 53q48 54 48 141v592h311v-1042h-295v125q-53 -71 -129 -111q-74 -39 -166 -39q-11 0 -31 4q-13 4 -24 11v-420h-312v1476h312v-596q0 -92 43 -141t121 -49z" />
    <glyph glyph-name="paragraph" unicode="&#xb6;" horiz-adv-x="1380" 
d="M807 1440l-4 -1731h-256v858h-17q-211 0 -344 121t-133 324q0 194 135 311t347 117h272zM1198 -291h-254v1727h254v-1727z" />
    <glyph glyph-name="periodcentered" unicode="&#xb7;" horiz-adv-x="589" 
d="M500 719v-2q0 -82 -60 -142q-57 -57 -147 -57q-91 0 -148 57t-57 142q0 90 57 147q60 60 148 60q89 0 147 -58q60 -60 60 -147z" />
    <glyph glyph-name="cedilla" unicode="&#xb8;" horiz-adv-x="755" 
d="M90 -221l154 244h205l-80 -127q113 -3 182 -66q67 -61 67 -164q0 -104 -77 -172q-76 -67 -197 -67q-118 0 -197 61q-79 64 -88 160l209 2q3 -22 21 -37q18 -12 49 -12q35 0 53 18q19 19 19 49q0 32 -19 51t-51 19q-30 0 -43 -8q-20 -9 -31 -27z" />
    <glyph glyph-name="onesuperior" unicode="&#xb9;" horiz-adv-x="458" 
d="M365 1008h-205v526h-133l47 195h291v-721z" />
    <glyph glyph-name="ordmasculine" unicode="&#xba;" horiz-adv-x="794" 
d="M676 1196l2 -2q0 -119 -80 -199t-201 -80q-118 0 -198 80t-80 199q0 115 80 195q79 79 196 79q122 0 201 -79q80 -80 80 -193zM301 1190v4q0 -39 29 -76q28 -31 71 -31q46 0 72 29q25 28 25 74q0 51 -27 78q-28 28 -74 28q-42 0 -69 -30q-27 -27 -27 -76zM131 801h539
v-185h-539v185z" />
    <glyph glyph-name="guillemotright" unicode="&#xbb;" horiz-adv-x="1089" 
d="M801 74h-301l223 448l-223 451h301l223 -451zM377 74h-301l223 448l-223 451h301l223 -451z" />
    <glyph glyph-name="onequarter" unicode="&#xbc;" horiz-adv-x="1470" 
d="M762 264l248 457h235l-244 -436h109v98l201 47v-145h49v-185h-49v-100h-201v100h-348v164zM442 719h-204v526h-134l48 195h290v-721zM1169 1440h240l-1112 -1440h-240z" />
    <glyph glyph-name="onehalf" unicode="&#xbd;" horiz-adv-x="1525" 
d="M1434 0l-545 -12v162l256 229q30 30 41 49q12 24 12 51q0 23 -14 37t-39 14q-27 0 -43 -16t-19 -43h-209q6 108 84 186q77 74 197 74q118 0 188 -61q72 -63 72 -164q0 -62 -31 -119q-33 -56 -116 -133l-66 -59h232v-195zM440 707h-204v526h-134l48 194h290v-720z
M1167 1427h240l-1112 -1439h-240z" />
    <glyph glyph-name="threequarters" unicode="&#xbe;" horiz-adv-x="1519" 
d="M815 264l248 457h235l-243 -436h108v98l201 47v-145h49v-185h-49v-100h-201v100h-348v164zM1223 1440h239l-1112 -1440h-239zM80 938h203q5 -32 24 -47q24 -17 49 -17q35 0 54 19q18 18 18 53q0 34 -25 53t-69 19h-60v143h54q37 0 61 17q21 15 21 47q0 26 -17 43
q-16 16 -43 16t-45 -18q-17 -17 -20 -49h-203q6 104 80 169q78 66 194 66q122 0 191 -57q71 -59 71 -144q0 -59 -20 -92q-20 -35 -63 -61q50 -23 79 -66q27 -40 27 -102q0 -96 -76 -160q-75 -63 -205 -63q-123 0 -196 61q-75 63 -84 170z" />
    <glyph glyph-name="questiondown" unicode="&#xbf;" horiz-adv-x="1153" 
d="M406 870l-5 -2q0 82 60 142q57 57 147 57q91 0 148 -57q59 -59 59 -142q0 -90 -57 -147t-148 -57q-88 0 -147 59q-57 57 -57 147zM760 420l-240 -178q-64 -52 -94 -105q-31 -54 -31 -121q0 -68 47 -112q46 -43 129 -43q90 0 142 49t55 137h324q-6 -214 -154 -344
q-147 -129 -383 -129q-217 0 -356 115q-138 114 -138 301q0 113 54 227q51 106 147 180l203 160h295v-137z" />
    <glyph glyph-name="Agrave" unicode="&#xc0;" horiz-adv-x="1439" 
d="M547 1440h348l516 -1440h-348l-86 258h-533l-86 -258h-331zM887 530l-176 527l-176 -527h352zM573 1559l-174 305h301l168 -305h-295z" />
    <glyph glyph-name="Aacute" unicode="&#xc1;" horiz-adv-x="1439" 
d="M547 1440h348l516 -1440h-348l-86 258h-533l-86 -258h-331zM887 530l-176 527l-176 -527h352zM868 1559h-295l168 305h301z" />
    <glyph glyph-name="Acircumflex" unicode="&#xc2;" horiz-adv-x="1439" 
d="M547 1440h348l516 -1440h-348l-86 258h-533l-86 -258h-331zM887 530l-176 527l-176 -527h352zM342 1559l203 305h346l205 -305h-273l-106 157l-107 -157h-268z" />
    <glyph glyph-name="Atilde" unicode="&#xc3;" horiz-adv-x="1439" 
d="M547 1440h348l516 -1440h-348l-86 258h-533l-86 -258h-331zM887 530l-176 527l-176 -527h352zM766 1798l-4 -4q26 -20 37 -25q12 -6 22 -6q21 0 31 19q11 25 16 65h205q-9 -150 -67 -223q-59 -74 -166 -74q-38 0 -70 13t-74 49q-26 26 -39 30q-14 7 -26 7q-25 0 -37 -21
q-14 -28 -21 -67h-206q9 151 67 227t166 76q37 0 78 -13q31 -8 88 -53z" />
    <glyph glyph-name="Adieresis" unicode="&#xc4;" horiz-adv-x="1439" 
d="M547 1440h348l516 -1440h-348l-86 258h-533l-86 -258h-331zM887 530l-176 527l-176 -527h352zM694 1704h-2q0 -65 -43 -111q-42 -45 -106 -45q-67 0 -109 45q-43 46 -43 111t43 111q42 45 109 45q66 0 108 -45q43 -46 43 -111zM1051 1704h-2q0 -65 -43 -111
q-42 -45 -107 -45q-66 0 -111 45t-45 111t45 111t111 45q67 0 109 -45q43 -46 43 -111z" />
    <glyph glyph-name="Aring" unicode="&#xc5;" horiz-adv-x="1439" 
d="M547 1440h348l516 -1440h-348l-86 258h-533l-86 -258h-331zM887 530l-176 527l-176 -527h352zM967 1772l-2 2q0 -99 -72 -168q-71 -68 -176 -68q-106 0 -178 66q-70 64 -70 165q0 97 72 166q71 68 176 68q102 0 176 -68t74 -163zM641 1774h-2q0 -33 23 -56q22 -22 55 -22
t55 22q23 23 23 56q0 32 -23 55q-22 22 -55 22t-55 -22q-21 -21 -21 -55z" />
    <glyph glyph-name="AE" unicode="&#xc6;" horiz-adv-x="1921" 
d="M1817 0h-938v258h-453l-137 -258h-338l774 1440h1081v-297h-602v-273h553v-280h-553v-293h613v-297zM879 1108l-308 -578h308v578z" />
    <glyph glyph-name="Ccedilla" unicode="&#xc7;" horiz-adv-x="1648" 
d="M1241 600l340 -14q-40 -254 -221 -426q-182 -173 -445 -197l-47 -74q115 -3 183 -65q67 -61 67 -164t-78 -172q-77 -68 -196 -68q-117 0 -197 62q-79 64 -88 160l209 2q3 -23 20 -37q19 -13 50 -13q34 0 53 19q18 18 18 49q0 33 -18 51q-19 19 -51 19q-30 0 -43 -8
q-20 -9 -31 -27l-176 76l125 202q-282 37 -461 244q-178 205 -178 496q0 313 213 532q212 215 540 215q286 0 492 -164q203 -162 256 -430h-350q-46 131 -150 209q-110 78 -248 78q-178 0 -294 -125q-117 -126 -117 -313q0 -188 117 -311t294 -123q155 0 267 86
q110 85 145 231z" />
    <glyph glyph-name="Egrave" unicode="&#xc8;" horiz-adv-x="1202" 
d="M477 1559l-174 305h301l168 -305h-295zM1098 0h-938v1440h927v-297h-602v-273h553v-280h-553v-293h613v-297z" />
    <glyph glyph-name="Eacute" unicode="&#xc9;" horiz-adv-x="1202" 
d="M1098 0h-938v1440h927v-297h-602v-273h553v-280h-553v-293h613v-297zM772 1559h-295l168 305h301z" />
    <glyph glyph-name="Ecircumflex" unicode="&#xca;" horiz-adv-x="1202" 
d="M246 1559l203 305h346l204 -305h-272l-106 157l-107 -157h-268zM1098 0h-938v1440h927v-297h-602v-273h553v-280h-553v-293h613v-297z" />
    <glyph glyph-name="Edieresis" unicode="&#xcb;" horiz-adv-x="1202" 
d="M1098 0h-938v1440h927v-297h-602v-273h553v-280h-553v-293h613v-297zM600 1704h-2q0 -65 -43 -111q-42 -45 -106 -45q-67 0 -109 45q-43 46 -43 111t43 111q42 45 109 45q66 0 108 -45q43 -46 43 -111zM956 1704h-2q0 -65 -43 -111q-42 -45 -106 -45q-66 0 -111 45
t-45 111t45 111t111 45t108 -45q43 -46 43 -111z" />
    <glyph glyph-name="Igrave" unicode="&#xcc;" horiz-adv-x="645" 
d="M485 0h-325v1440h325v-1440zM176 1559l-174 305h301l168 -305h-295z" />
    <glyph glyph-name="Iacute" unicode="&#xcd;" horiz-adv-x="645" 
d="M485 0h-325v1440h325v-1440zM473 1559h-295l168 305h301z" />
    <glyph glyph-name="Icircumflex" unicode="&#xce;" horiz-adv-x="645" 
d="M485 0h-325v1440h325v-1440zM-55 1559l202 305h347l204 -305h-272l-107 157l-106 -157h-268z" />
    <glyph glyph-name="Idieresis" unicode="&#xcf;" horiz-adv-x="645" 
d="M485 0h-325v1440h325v-1440zM297 1704h-2q0 -65 -43 -111q-42 -45 -107 -45q-66 0 -108 45q-43 46 -43 111t43 111q42 45 108 45q67 0 109 -45q43 -46 43 -111zM653 1704h-2q0 -65 -43 -111q-42 -45 -106 -45q-66 0 -111 45t-45 111t45 111t111 45t108 -45
q43 -46 43 -111z" />
    <glyph glyph-name="Eth" unicode="&#xd0;" horiz-adv-x="1619" 
d="M764 0l-549 -2v604h-174v221h174v615h549q340 0 559 -195q217 -193 217 -520q0 -330 -217 -526q-218 -197 -559 -197zM541 602l-2 -297h213q205 0 325 111q121 112 121 307q0 192 -119 299q-120 108 -325 108h-213v-307h305v-221h-305z" />
    <glyph glyph-name="Ntilde" unicode="&#xd1;" horiz-adv-x="1484" 
d="M791 1798l-5 -4q26 -20 37 -25q12 -6 23 -6q22 0 31 19q11 25 16 65h205q-9 -149 -68 -223t-166 -74q-36 0 -69 13q-32 13 -74 49q-25 26 -39 30q-14 7 -27 7q-25 0 -37 -21q-12 -25 -20 -67h-207q9 150 68 227q58 76 166 76q36 0 77 -13q32 -8 89 -53zM463 -4h-307v1440
h309l549 -891v891h307v-1440h-311l-547 885v-885z" />
    <glyph glyph-name="Ograve" unicode="&#xd2;" horiz-adv-x="1689" 
d="M698 1559l-174 305h301l168 -305h-295zM78 721l-2 2q0 320 215 532q219 213 551 213q334 0 553 -213q217 -211 217 -532t-217 -535q-218 -215 -553 -215q-330 0 -549 213q-215 212 -215 535zM1270 721q0 186 -121 313t-307 127q-188 0 -307 -125t-119 -315
q0 -194 119 -313q120 -123 307 -123t307 123q121 127 121 313z" />
    <glyph glyph-name="Oacute" unicode="&#xd3;" horiz-adv-x="1689" 
d="M995 1559h-295l168 305h301zM78 721l-2 2q0 320 215 532q219 213 551 213q334 0 553 -213q217 -211 217 -532t-217 -535q-218 -215 -553 -215q-330 0 -549 213q-215 212 -215 535zM1270 721q0 186 -121 313t-307 127q-188 0 -307 -125t-119 -315q0 -194 119 -313
q120 -123 307 -123t307 123q121 127 121 313z" />
    <glyph glyph-name="Ocircumflex" unicode="&#xd4;" horiz-adv-x="1689" 
d="M469 1559l203 305h346l205 -305h-273l-106 157l-107 -157h-268zM78 721l-2 2q0 320 215 532q219 213 551 213q334 0 553 -213q217 -211 217 -532t-217 -535q-218 -215 -553 -215q-330 0 -549 213q-215 212 -215 535zM1270 721q0 186 -121 313t-307 127q-188 0 -307 -125
t-119 -315q0 -194 119 -313q120 -123 307 -123t307 123q121 127 121 313z" />
    <glyph glyph-name="Otilde" unicode="&#xd5;" horiz-adv-x="1689" 
d="M78 721l-2 2q0 320 215 532q219 213 551 213q334 0 553 -213q217 -211 217 -532t-217 -535q-218 -215 -553 -215q-330 0 -549 213q-215 212 -215 535zM1270 721q0 186 -121 313t-307 127q-188 0 -307 -125t-119 -315q0 -194 119 -313q120 -123 307 -123t307 123
q121 127 121 313zM889 1800l-4 -4q22 -16 37 -24q14 -7 22 -7q22 0 31 19q11 25 16 65h205q-9 -149 -68 -223t-165 -74q-37 0 -70 13q-32 13 -74 49q-27 27 -39 31q-12 6 -26 6q-25 0 -37 -21q-14 -28 -21 -67h-207q9 150 68 227q58 76 166 76q37 0 78 -13q31 -8 88 -53z
" />
    <glyph glyph-name="Odieresis" unicode="&#xd6;" horiz-adv-x="1689" 
d="M78 721l-2 2q0 320 215 532q219 213 551 213q334 0 553 -213q217 -211 217 -532t-217 -535q-218 -215 -553 -215q-330 0 -549 213q-215 212 -215 535zM1270 721q0 186 -121 313t-307 127q-188 0 -307 -125t-119 -315q0 -194 119 -313q120 -123 307 -123t307 123
q121 127 121 313zM819 1706h-2q0 -65 -43 -111q-42 -45 -106 -45q-67 0 -109 45q-43 46 -43 111t43 111q42 45 109 45q66 0 108 -45q43 -46 43 -111zM1176 1706h-2q0 -64 -44 -111q-42 -45 -106 -45q-66 0 -111 45t-45 111t45 111t111 45q67 0 109 -45q43 -46 43 -111z" />
    <glyph glyph-name="multiply" unicode="&#xd7;" horiz-adv-x="1167" 
d="M301 256l-174 174l283 283l-283 280l176 174l281 -280l280 280l174 -174l-280 -280l282 -283l-176 -174l-280 283z" />
    <glyph glyph-name="Oslash" unicode="&#xd8;" horiz-adv-x="1693" 
d="M496 47l-80 -117h-328l205 267q-98 98 -152 237q-53 139 -53 287q0 320 215 532q219 213 551 213q96 0 184 -18q92 -19 166 -55l90 116h324l-205 -266q99 -102 152 -235q53 -139 53 -285q0 -321 -217 -535q-218 -215 -553 -215q-91 0 -184 19q-90 18 -168 55zM854 1157
l4 2q-188 0 -307 -125t-119 -315q0 -70 19 -141q18 -69 55 -123l518 669q-49 18 -84 25q-36 8 -86 8zM858 281l-2 -2q188 0 307 122q121 127 121 314q0 73 -18 141q-18 71 -58 123l-514 -672q32 -14 80 -20q40 -6 84 -6z" />
    <glyph glyph-name="Ugrave" unicode="&#xd9;" horiz-adv-x="1421" 
d="M565 1559l-174 305h301l168 -305h-295zM950 1440h326v-942q0 -229 -160 -377t-405 -148q-244 0 -404 148t-160 377v942h326v-932q0 -102 62 -164q61 -61 165 -61q116 0 183 61t67 164v932z" />
    <glyph glyph-name="Uacute" unicode="&#xda;" horiz-adv-x="1421" 
d="M950 1440h326v-942q0 -229 -160 -377t-405 -148q-244 0 -404 148t-160 377v942h326v-932q0 -102 62 -164q61 -61 165 -61q116 0 183 61t67 164v932zM858 1559h-295l168 305h301z" />
    <glyph glyph-name="Ucircumflex" unicode="&#xdb;" horiz-adv-x="1421" 
d="M332 1559l203 305h346l204 -305h-272l-106 157l-107 -157h-268zM950 1440h326v-942q0 -229 -160 -377t-405 -148q-244 0 -404 148t-160 377v942h326v-932q0 -102 62 -164q61 -61 165 -61q116 0 183 61t67 164v932z" />
    <glyph glyph-name="Udieresis" unicode="&#xdc;" horiz-adv-x="1421" 
d="M950 1440h326v-942q0 -229 -160 -377t-405 -148q-244 0 -404 148t-160 377v942h326v-932q0 -102 62 -164q61 -61 165 -61q116 0 183 61t67 164v932zM686 1704h-2q0 -65 -43 -111q-42 -45 -106 -45q-67 0 -109 45q-43 46 -43 111t43 111q42 45 109 45q66 0 108 -45
q43 -46 43 -111zM1042 1704h-2q0 -65 -43 -111q-42 -45 -106 -45q-66 0 -111 45t-45 111t45 111t111 45t108 -45q43 -46 43 -111z" />
    <glyph glyph-name="Yacute" unicode="&#xdd;" horiz-adv-x="1363" 
d="M848 0h-326v485l-487 955h371l282 -598l299 598h342l-481 -938v-502zM856 1559h-295l168 305h301z" />
    <glyph glyph-name="Thorn" unicode="&#xde;" horiz-adv-x="1361" 
d="M160 1440l325 -2v-234h250q246 0 402 -129q155 -128 155 -346q0 -224 -155 -358q-156 -135 -402 -135h-250v-236h-325v1440zM717 918l-232 -3v-397h232q108 0 172 55q63 54 63 152q0 90 -63 141q-64 52 -172 52z" />
    <glyph glyph-name="germandbls" unicode="&#xdf;" horiz-adv-x="1290" 
d="M713 258v-2q89 0 145 59q55 58 55 152q0 83 -61 141q-58 58 -152 58h-127v235h80q79 0 131 49t52 127q0 75 -54 129q-51 51 -139 51t-143 -55q-56 -56 -56 -145v-1055h-311v1014q0 250 141 391t375 141q216 0 352 -112q142 -115 142 -301q0 -107 -41 -191
q-40 -80 -123 -129q115 -53 178 -153q64 -101 64 -228q0 -197 -131 -328t-326 -131q-50 0 -107 11q-43 8 -82 30v275q30 -17 62 -25q27 -8 76 -8z" />
    <glyph glyph-name="agrave" unicode="&#xe0;" horiz-adv-x="1136" 
d="M719 0l-4 117q-45 -65 -127 -107q-75 -37 -170 -37q-152 0 -246 82t-94 215q0 138 90 222q88 82 281 126l256 58v10q0 59 -39 92q-41 35 -105 35q-71 0 -110 -33q-44 -35 -50 -92h-301q9 161 142 270t325 109q208 0 328 -111q119 -110 119 -301v-655h-295zM500 215l-2 -2
q80 0 143 66q61 64 61 147v35l-174 -37q-72 -14 -112 -43q-37 -27 -37 -72q0 -44 31 -69t90 -25zM406 1159l-175 305h301l168 -305h-294z" />
    <glyph glyph-name="aacute" unicode="&#xe1;" horiz-adv-x="1136" 
d="M719 0l-4 117q-45 -65 -127 -107q-75 -37 -170 -37q-152 0 -246 82t-94 215q0 138 90 222q88 82 281 126l256 58v10q0 59 -39 92q-41 35 -105 35q-71 0 -110 -33q-44 -35 -50 -92h-301q9 161 142 270t325 109q208 0 328 -111q119 -110 119 -301v-655h-295zM500 215l-2 -2
q80 0 143 66q61 64 61 147v35l-174 -37q-72 -14 -112 -43q-37 -27 -37 -72q0 -44 31 -69t90 -25zM700 1159h-294l167 305h301z" />
    <glyph glyph-name="acircumflex" unicode="&#xe2;" horiz-adv-x="1136" 
d="M719 0l-4 117q-45 -65 -127 -107q-75 -37 -170 -37q-152 0 -246 82t-94 215q0 138 90 222q88 82 281 126l256 58v10q0 59 -39 92q-41 35 -105 35q-71 0 -110 -33q-44 -35 -50 -92h-301q9 161 142 270t325 109q208 0 328 -111q119 -110 119 -301v-655h-295zM500 215l-2 -2
q80 0 143 66q61 64 61 147v35l-174 -37q-72 -14 -112 -43q-37 -27 -37 -72q0 -44 31 -69t90 -25zM176 1159l203 305h346l205 -305h-273l-106 158l-107 -158h-268z" />
    <glyph glyph-name="atilde" unicode="&#xe3;" horiz-adv-x="1136" 
d="M719 0l-4 117q-45 -65 -127 -107q-75 -37 -170 -37q-152 0 -246 82t-94 215q0 138 90 222q88 82 281 126l256 58v10q0 59 -39 92q-41 35 -105 35q-71 0 -110 -33q-44 -35 -50 -92h-301q9 161 142 270t325 109q208 0 328 -111q119 -110 119 -301v-655h-295zM500 215l-2 -2
q80 0 143 66q61 64 61 147v35l-174 -37q-72 -14 -112 -43q-37 -27 -37 -72q0 -44 31 -69t90 -25zM598 1401l-4 -4q26 -19 37 -25q12 -6 22 -6q22 0 31 18q11 25 16 66h205q-9 -150 -67 -223q-59 -74 -166 -74q-40 0 -70 12q-32 13 -74 49q-27 27 -39 31q-12 6 -26 6
q-26 0 -37 -20q-12 -24 -20 -68h-207q9 152 67 228q57 75 166 75q40 0 78 -12q31 -8 88 -53z" />
    <glyph glyph-name="adieresis" unicode="&#xe4;" horiz-adv-x="1136" 
d="M719 0l-4 117q-45 -65 -127 -107q-75 -37 -170 -37q-152 0 -246 82t-94 215q0 138 90 222q88 82 281 126l256 58v10q0 59 -39 92q-41 35 -105 35q-71 0 -110 -33q-44 -35 -50 -92h-301q9 161 142 270t325 109q208 0 328 -111q119 -110 119 -301v-655h-295zM500 215l-2 -2
q80 0 143 66q61 64 61 147v35l-174 -37q-72 -14 -112 -43q-37 -27 -37 -72q0 -44 31 -69t90 -25zM526 1307h-2q0 -65 -43 -111q-42 -45 -106 -45q-67 0 -109 45q-43 46 -43 111q0 64 43 110q42 45 109 45q66 0 108 -45q43 -46 43 -110zM883 1307h-2q0 -65 -43 -111
q-42 -45 -107 -45t-110 45q-46 46 -46 111q0 64 46 110q45 45 110 45q67 0 109 -45q43 -46 43 -110z" />
    <glyph glyph-name="aring" unicode="&#xe5;" horiz-adv-x="1136" 
d="M719 0l-4 117q-45 -65 -127 -107q-75 -37 -170 -37q-152 0 -246 82t-94 215q0 138 90 222q88 82 281 126l256 58v10q0 59 -39 92q-41 35 -105 35q-71 0 -110 -33q-44 -35 -50 -92h-301q9 161 142 270t325 109q208 0 328 -111q119 -110 119 -301v-655h-295zM500 215l-2 -2
q80 0 143 66q61 64 61 147v35l-174 -37q-72 -14 -112 -43q-37 -27 -37 -72q0 -44 31 -69t90 -25zM799 1372l-2 2q0 -99 -72 -168q-70 -67 -176 -67q-107 0 -178 65q-70 64 -70 166q0 97 72 166q71 68 176 68q102 0 176 -68t74 -164zM473 1374h-2q0 -32 23 -55t55 -23t55 23
t23 55q0 33 -23 56q-22 22 -55 22t-55 -22q-21 -21 -21 -56z" />
    <glyph glyph-name="ae" unicode="&#xe6;" horiz-adv-x="1878" 
d="M1491 342l293 2q-49 -173 -187 -272t-333 -99q-129 0 -246 60q-111 60 -180 166q-50 -108 -150 -166q-101 -58 -233 -58q-172 0 -273 82q-104 82 -104 215q0 138 90 222q89 83 281 127l256 55v12q0 59 -39 92q-41 35 -105 35q-71 0 -110 -33q-44 -35 -50 -92h-301
q9 164 140 271q132 108 323 108q122 0 201 -39q86 -42 137 -117q76 76 172 117q88 39 203 39q241 0 387 -149q147 -150 147 -383v-91h-804q17 -104 88 -163q72 -60 172 -60q72 0 135 29q54 26 90 90zM1260 819l-3 -2q-89 0 -153 -43t-94 -125h489q-27 85 -88 127
q-61 43 -151 43zM498 217q80 0 141 64t61 141v43l-174 -37q-72 -14 -112 -43q-37 -27 -37 -74q0 -44 31 -69t90 -25z" />
    <glyph glyph-name="ccedilla" unicode="&#xe7;" 
d="M633 1069l-10 -12q213 0 364 -127t178 -330h-309q-21 78 -84 123q-65 47 -147 47q-114 0 -185 -74q-69 -69 -69 -188q0 -109 71 -186q71 -74 185 -74q84 0 149 47q66 47 86 127h307q-24 -186 -149 -305q-127 -124 -309 -148l-47 -75q113 -3 182 -66q67 -61 67 -164
q0 -104 -77 -172q-76 -67 -197 -67q-118 0 -197 61q-79 64 -88 160l209 2q3 -22 21 -37q18 -12 49 -12q35 0 53 18q19 19 19 49q0 32 -19 51t-51 19q-30 0 -43 -8q-20 -9 -31 -27l-176 76l127 205q-202 38 -324 184t-122 354q0 237 159 393q156 156 408 156z" />
    <glyph glyph-name="egrave" unicode="&#xe8;" 
d="M625 223l-2 -6q72 0 135 29q54 25 90 86h301q-50 -175 -188 -269q-140 -96 -338 -96q-244 0 -400 156q-155 155 -155 393q0 232 159 391q160 160 398 160q244 0 393 -149q151 -151 151 -383v-95h-804q21 -102 90 -159q64 -58 170 -58zM623 811q-92 0 -154 -45
q-64 -46 -92 -125h489q-24 79 -88 125q-62 45 -155 45zM473 1157l-174 305h301l168 -305h-295z" />
    <glyph glyph-name="eacute" unicode="&#xe9;" 
d="M770 1163h-295l168 305h301zM625 223l-2 -6q72 0 135 29q54 25 90 86h301q-50 -175 -188 -269q-140 -96 -338 -96q-244 0 -400 156q-155 155 -155 393q0 232 159 391q160 160 398 160q244 0 393 -149q151 -151 151 -383v-95h-804q21 -102 90 -159q64 -58 170 -58z
M623 811q-92 0 -154 -45q-64 -46 -92 -125h489q-24 79 -88 125q-62 45 -155 45z" />
    <glyph glyph-name="ecircumflex" unicode="&#xea;" 
d="M246 1163l203 305h346l204 -305h-272l-106 158l-107 -158h-268zM625 223l-2 -6q72 0 135 29q54 25 90 86h301q-50 -175 -188 -269q-140 -96 -338 -96q-244 0 -400 156q-155 155 -155 393q0 232 159 391q160 160 398 160q244 0 393 -149q151 -151 151 -383v-95h-804
q21 -102 90 -159q64 -58 170 -58zM623 811q-92 0 -154 -45q-64 -46 -92 -125h489q-24 79 -88 125q-62 45 -155 45z" />
    <glyph glyph-name="edieresis" unicode="&#xeb;" 
d="M596 1311h-2q0 -65 -43 -111q-42 -45 -107 -45q-66 0 -108 45q-43 46 -43 111q0 64 43 110q42 45 108 45q67 0 109 -45q43 -46 43 -110zM952 1311h-2q0 -65 -43 -111q-42 -45 -106 -45q-66 0 -111 45t-45 111q0 65 45 110t111 45t108 -45q43 -46 43 -110zM621 223l-3 -6
q73 0 136 29q54 25 90 86h301q-50 -174 -189 -269q-140 -96 -338 -96q-243 0 -399 156t-156 393q0 231 160 391t398 160q244 0 393 -149q151 -151 151 -383v-95h-805q21 -101 91 -159q64 -58 170 -58zM618 811q-91 0 -153 -45q-64 -46 -92 -125h489q-24 79 -88 125
q-62 45 -156 45z" />
    <glyph glyph-name="igrave" unicode="&#xec;" horiz-adv-x="585" 
d="M449 0h-312v1042h312v-1042zM145 1163l-174 305h301l168 -305h-295z" />
    <glyph glyph-name="iacute" unicode="&#xed;" horiz-adv-x="585" 
d="M440 1163h-295l168 305h301zM449 0h-312v1042h312v-1042z" />
    <glyph glyph-name="icircumflex" unicode="&#xee;" horiz-adv-x="585" 
d="M-86 1163l203 305h346l205 -305h-273l-106 158l-107 -158h-268zM449 0h-312v1042h312v-1042z" />
    <glyph glyph-name="idieresis" unicode="&#xef;" horiz-adv-x="585" 
d="M264 1311h-2q0 -65 -43 -111q-42 -45 -106 -45q-67 0 -109 45q-43 46 -43 111q0 64 43 110q42 45 109 45q66 0 108 -45q43 -46 43 -110zM621 1311h-3q0 -65 -43 -111q-42 -45 -106 -45q-66 0 -111 45t-45 111q0 65 45 110t111 45q67 0 109 -45q43 -46 43 -110zM444 0
h-311v1042h311v-1042z" />
    <glyph glyph-name="eth" unicode="&#xf0;" horiz-adv-x="1282" 
d="M68 514l2 -4q0 215 147 362q148 148 367 148q67 0 129 -19q63 -19 110 -51q-22 64 -55 123q-37 67 -80 123l-237 -94v172l127 51q-58 62 -101 96l-112 92h350q40 -29 65 -51l49 -45l230 96v-174l-113 -47q119 -152 184 -340q66 -195 66 -374q0 -257 -162 -431
q-164 -176 -399 -176q-240 0 -406 158q-161 154 -161 385zM895 508q0 107 -74 178q-78 72 -186 72q-112 0 -184 -72t-72 -178t72 -178t184 -72q108 0 186 72q74 71 74 178z" />
    <glyph glyph-name="ntilde" unicode="&#xf1;" 
d="M446 0l-311 -6v1042h297v-127q53 74 133 115q84 41 176 41q170 0 271 -104q102 -108 102 -279v-684h-311v596q0 90 -43 139t-129 49q-87 0 -135 -51q-50 -53 -50 -141v-590zM674 1399l-4 -4q26 -20 37 -25q12 -6 22 -6q22 0 31 18q11 25 16 66h205q-9 -149 -68 -223
t-165 -74q-40 0 -70 12q-32 13 -74 49q-27 27 -39 31q-12 6 -26 6q-26 0 -37 -20q-14 -27 -21 -68h-207q9 151 68 228q57 75 166 75q40 0 78 -12q31 -8 88 -53z" />
    <glyph glyph-name="ograve" unicode="&#xf2;" horiz-adv-x="1267" 
d="M68 522v-6q0 237 159 393q156 156 408 156q249 0 405 -156q160 -157 160 -389q0 -236 -160 -393q-156 -156 -405 -156q-242 0 -408 158q-159 156 -159 393zM891 514v-2q0 114 -74 188t-186 74q-114 0 -185 -74q-71 -77 -71 -186t71 -186q71 -74 185 -74q112 0 186 74
t74 186zM487 1155l-174 305h301l168 -305h-295z" />
    <glyph glyph-name="oacute" unicode="&#xf3;" horiz-adv-x="1267" 
d="M782 1163h-295l168 305h301zM68 522v-6q0 237 159 393q156 156 408 156q249 0 405 -156q160 -157 160 -389q0 -236 -160 -393q-156 -156 -405 -156q-242 0 -408 158q-159 156 -159 393zM891 514v-2q0 114 -74 188t-186 74q-114 0 -185 -74q-71 -77 -71 -186t71 -186
q71 -74 185 -74q112 0 186 74t74 186z" />
    <glyph glyph-name="ocircumflex" unicode="&#xf4;" horiz-adv-x="1267" 
d="M258 1163l203 305h346l205 -305h-273l-106 158l-107 -158h-268zM68 522v-6q0 237 159 393q156 156 408 156q249 0 405 -156q160 -157 160 -389q0 -236 -160 -393q-156 -156 -405 -156q-242 0 -408 158q-159 156 -159 393zM891 514v-2q0 114 -74 188t-186 74
q-114 0 -185 -74q-71 -77 -71 -186t71 -186q71 -74 185 -74q112 0 186 74t74 186z" />
    <glyph glyph-name="otilde" unicode="&#xf5;" horiz-adv-x="1267" 
d="M68 522v-6q0 237 159 393q156 156 408 156q249 0 405 -156q160 -157 160 -389q0 -236 -160 -393q-156 -156 -405 -156q-242 0 -408 158q-159 156 -159 393zM891 514v-2q0 114 -74 188t-186 74q-114 0 -185 -74q-71 -77 -71 -186t71 -186q71 -74 185 -74q112 0 186 74
t74 186zM678 1397l-4 -4q26 -19 37 -25q12 -6 22 -6q22 0 31 18q11 25 16 66h205q-9 -150 -67 -223q-59 -74 -166 -74q-40 0 -70 12q-32 13 -74 49q-27 27 -39 31q-12 6 -26 6q-26 0 -37 -20q-14 -27 -21 -68h-206q9 151 67 227t166 76q40 0 78 -12q31 -8 88 -53z" />
    <glyph glyph-name="odieresis" unicode="&#xf6;" horiz-adv-x="1267" 
d="M608 1311h-2q0 -65 -43 -111q-42 -45 -106 -45q-67 0 -109 45q-43 46 -43 111q0 64 43 110q42 45 109 45q66 0 108 -45q43 -46 43 -110zM965 1311h-2q0 -65 -43 -111q-42 -45 -107 -45q-66 0 -111 45t-45 111q0 65 45 110t111 45q67 0 109 -45q43 -46 43 -110zM63 522v-6
q0 236 160 393q156 156 408 156q249 0 405 -156q160 -157 160 -389q0 -236 -160 -393q-156 -156 -405 -156q-242 0 -408 158q-160 157 -160 393zM887 514v-2q0 114 -74 188t-186 74q-114 0 -185 -74q-71 -77 -71 -186t71 -186q71 -74 185 -74q112 0 186 74t74 186z" />
    <glyph glyph-name="divide" unicode="&#xf7;" horiz-adv-x="1167" 
d="M770 1141l-6 -6q0 -76 -53 -129q-52 -52 -133 -52q-78 0 -132 54q-51 51 -51 129q0 79 54 133q53 53 133 53q82 0 135 -53t53 -129zM102 588v246h951v-246h-951zM764 285l-6 -6q0 -76 -53 -129q-52 -52 -134 -52q-77 0 -131 54q-51 51 -51 129q0 80 53 133t133 53
q83 0 136 -53t53 -129z" />
    <glyph glyph-name="oslash" unicode="&#xf8;" horiz-adv-x="1269" 
d="M387 23l-76 -97h-245l151 203q-71 68 -113 174q-38 93 -38 215q0 237 159 393q156 156 406 156q67 0 131 -12q60 -11 123 -37l69 92h248l-153 -205q73 -80 112 -174q39 -91 39 -209q0 -236 -160 -393q-156 -156 -407 -156q-60 0 -127 13q-58 12 -119 37zM627 782l-4 -4
q-114 0 -187 -76q-74 -77 -74 -192q0 -39 13 -80q12 -40 33 -70l305 408q-14 6 -43 10q-28 4 -43 4zM623 244h4q118 0 190 75q74 77 74 191q0 40 -12 78q-11 35 -33 71l-305 -405q3 -1 10 -2.5t14.5 -3t14.5 -2.5q14 -2 43 -2z" />
    <glyph glyph-name="ugrave" unicode="&#xf9;" horiz-adv-x="1220" 
d="M600 254h-6q82 0 129 53t47 142v591h311v-1042h-295v125q-55 -74 -129 -113t-170 -39q-166 0 -264 107t-98 278v684h311v-596q0 -92 43 -141t121 -49zM453 1163l-174 305h301l168 -305h-295z" />
    <glyph glyph-name="uacute" unicode="&#xfa;" horiz-adv-x="1220" 
d="M754 1163h-295l168 305h301zM600 254h-6q82 0 129 53t47 142v591h311v-1042h-295v125q-55 -74 -129 -113t-170 -39q-166 0 -264 107t-98 278v684h311v-596q0 -92 43 -141t121 -49z" />
    <glyph glyph-name="ucircumflex" unicode="&#xfb;" horiz-adv-x="1220" 
d="M229 1163l203 305h346l205 -305h-272l-107 158l-106 -158h-269zM600 254h-6q82 0 129 53t47 142v591h311v-1042h-295v125q-55 -74 -129 -113t-170 -39q-166 0 -264 107t-98 278v684h311v-596q0 -92 43 -141t121 -49z" />
    <glyph glyph-name="udieresis" unicode="&#xfc;" horiz-adv-x="1220" 
d="M580 1311h-2q0 -65 -43 -111q-42 -45 -107 -45q-67 0 -109 45q-43 46 -43 111q0 64 43 110q42 45 109 45t109 -45q43 -46 43 -110zM936 1311h-2q0 -65 -43 -111q-42 -45 -107 -45t-110 45t-45 111q0 65 45 110t110 45q67 0 109 -45q43 -46 43 -110zM596 254h-6
q82 0 129 53t47 142v591h311v-1042h-295v125q-55 -74 -129 -113t-170 -39q-166 0 -264 107t-98 278v684h311v-596q0 -92 43 -141t121 -49z" />
    <glyph glyph-name="yacute" unicode="&#xfd;" horiz-adv-x="1150" 
d="M801 1042h321l-526 -1476h-313l141 403l-399 1073h329l224 -651zM725 1163h-295l168 305h301z" />
    <glyph glyph-name="thorn" unicode="&#xfe;" horiz-adv-x="1345" 
d="M782 1069h-4q218 0 357 -154q137 -149 137 -393q0 -238 -139 -395q-139 -154 -357 -154q-103 0 -184 37q-86 39 -146 111v-555h-311v1952h311v-607q62 74 150 117q90 41 186 41zM944 520h-2q0 113 -72 191q-70 73 -184 73t-184 -73q-70 -70 -70 -191q0 -112 72 -190
q71 -74 184 -74t184 74q72 78 72 190z" />
    <glyph glyph-name="ydieresis" unicode="&#xff;" horiz-adv-x="1150" 
d="M801 1042h321l-526 -1476h-313l141 403l-399 1073h329l224 -651zM551 1311h-2q0 -65 -43 -111q-42 -45 -107 -45q-66 0 -108 45q-43 46 -43 111q0 64 43 110q42 45 108 45q67 0 109 -45q43 -46 43 -110zM907 1311h-2q0 -65 -43 -111q-42 -45 -106 -45q-66 0 -111 45
t-45 111q0 65 45 110t111 45t108 -45q43 -46 43 -110z" />
    <glyph glyph-name="Amacron" unicode="&#x100;" horiz-adv-x="1439" 
d="M547 1440h348l516 -1440h-348l-86 258h-533l-86 -258h-331zM887 530l-176 527l-176 -527h352zM1018 1591h-594v209h594v-209z" />
    <glyph glyph-name="amacron" unicode="&#x101;" horiz-adv-x="1136" 
d="M719 0l-4 117q-45 -65 -127 -107q-75 -37 -170 -37q-152 0 -246 82t-94 215q0 138 90 222q88 82 281 126l256 58v10q0 59 -39 92q-41 35 -105 35q-71 0 -110 -33q-44 -35 -50 -92h-301q9 161 142 270t325 109q208 0 328 -111q119 -110 119 -301v-655h-295zM500 215l-2 -2
q80 0 143 66q61 64 61 147v35l-174 -37q-72 -14 -112 -43q-37 -27 -37 -72q0 -44 31 -69t90 -25zM852 1194h-594v209h594v-209z" />
    <glyph glyph-name="Abreve" unicode="&#x102;" horiz-adv-x="1439" 
d="M547 1440h348l516 -1440h-348l-86 258h-533l-86 -258h-331zM887 530l-176 527l-176 -527h352zM719 1538h4q-146 0 -246 92q-98 91 -98 228h227q0 -55 31 -91q30 -34 84 -34t84 34q31 36 31 91h227q0 -137 -98 -228q-100 -92 -246 -92z" />
    <glyph glyph-name="abreve" unicode="&#x103;" horiz-adv-x="1136" 
d="M719 0l-4 117q-45 -65 -127 -107q-75 -37 -170 -37q-152 0 -246 82t-94 215q0 138 90 222q88 82 281 126l256 58v10q0 59 -39 92q-41 35 -105 35q-71 0 -110 -33q-44 -35 -50 -92h-301q9 161 142 270t325 109q208 0 328 -111q119 -110 119 -301v-655h-295zM500 215l-2 -2
q80 0 143 66q61 64 61 147v35l-174 -37q-72 -14 -112 -43q-37 -27 -37 -72q0 -44 31 -69t90 -25zM553 1139h4q-146 0 -246 92q-98 91 -98 227h227q0 -54 31 -90q30 -35 84 -35t84 35q31 36 31 90h227q0 -136 -98 -227q-100 -92 -246 -92z" />
    <glyph glyph-name="Aogonek" unicode="&#x104;" horiz-adv-x="1439" 
d="M547 1440l344 -2l516 -1440h-129q-106 -121 -141 -174q-33 -50 -33 -94q0 -34 22 -56q20 -20 62 -20q25 0 49 6q23 6 47 23v-201q-44 -26 -86 -37q-46 -12 -98 -12q-107 0 -174 61q-68 62 -68 166q0 70 41 141q42 73 164 201l-86 256h-533l-86 -258h-331zM883 528
l-176 527l-177 -527h353z" />
    <glyph glyph-name="aogonek" unicode="&#x105;" horiz-adv-x="1136" 
d="M719 2l-8 113q-45 -65 -127 -107q-75 -37 -170 -37q-152 0 -246 82t-94 215q0 137 90 221t280 127l256 58v10q0 60 -38 92q-41 35 -105 35q-72 0 -111 -33q-43 -34 -49 -92h-301q9 161 142 270t325 109q208 0 328 -111q119 -110 119 -301v-655h-76q-106 -121 -141 -174
q-33 -50 -33 -94q0 -34 22 -56q20 -20 62 -20q25 0 49 6q23 6 47 23v-201q-44 -26 -86 -37q-46 -12 -98 -12q-107 0 -174 61q-68 62 -68 166q0 70 41 141q42 73 164 201zM496 213l-2 -2q81 0 143 65q61 64 61 148v35l-174 -37q-72 -14 -112 -43q-37 -27 -37 -72
q0 -44 31 -69t90 -25z" />
    <glyph glyph-name="Cacute" unicode="&#x106;" horiz-adv-x="1648" 
d="M1241 600l340 -6q-44 -281 -248 -455t-504 -174q-328 0 -540 215q-213 219 -213 535q0 313 213 532q212 215 540 215q286 0 492 -164q203 -162 256 -430h-350q-46 131 -150 209q-110 78 -248 78q-178 0 -294 -125q-117 -126 -117 -313q0 -188 117 -311t294 -123
q155 0 267 86q110 85 145 231zM979 1552h-295l168 306h301z" />
    <glyph glyph-name="cacute" unicode="&#x107;" 
d="M780 1163h-295l168 305h301zM633 1069l-4 -4q213 0 364 -127t178 -330h-309q-21 78 -84 123q-65 47 -147 47q-115 0 -185 -73q-69 -69 -69 -189q0 -108 72 -186q71 -74 184 -74q84 0 149 47q66 47 86 127h308q-27 -201 -179 -332q-150 -129 -364 -129q-242 0 -408 158
q-159 156 -159 393t159 393q156 156 408 156z" />
    <glyph glyph-name="Ccircumflex" unicode="&#x108;" horiz-adv-x="1648" 
d="M1241 600l340 -6q-44 -281 -248 -455t-504 -174q-328 0 -540 215q-213 219 -213 535q0 313 213 532q212 215 540 215q286 0 492 -164q203 -162 256 -430h-350q-46 131 -150 209q-110 78 -248 78q-178 0 -294 -125q-117 -126 -117 -313q0 -188 117 -311t294 -123
q155 0 267 86q110 85 145 231zM453 1552l202 306h346l205 -306h-272l-107 158l-106 -158h-268z" />
    <glyph glyph-name="ccircumflex" unicode="&#x109;" 
d="M256 1163l203 305h346l205 -305h-273l-106 158l-107 -158h-268zM633 1069l-4 -4q213 0 364 -127t178 -330h-309q-21 78 -84 123q-65 47 -147 47q-115 0 -185 -73q-69 -69 -69 -189q0 -108 72 -186q71 -74 184 -74q84 0 149 47q66 47 86 127h308q-27 -201 -179 -332
q-150 -129 -364 -129q-242 0 -408 158q-159 156 -159 393t159 393q156 156 408 156z" />
    <glyph glyph-name="Cdotaccent" unicode="&#x10a;" horiz-adv-x="1648" 
d="M1004 1716h-3q0 -70 -49 -119t-118 -49q-70 0 -119 49t-49 119t49 119t119 49q71 0 120 -49q50 -50 50 -119zM1239 600l340 -6q-44 -281 -248 -455t-504 -174q-328 0 -540 215q-213 219 -213 535q0 313 213 532q212 215 540 215q286 0 492 -164q203 -162 256 -430h-350
q-46 131 -150 209q-110 78 -248 78q-179 0 -295 -125t-116 -313q0 -189 116 -311q117 -123 295 -123q155 0 267 86q110 85 145 231z" />
    <glyph glyph-name="cdotaccent" unicode="&#x10b;" 
d="M633 1069l-4 -4q213 0 364 -127t178 -330h-309q-21 78 -84 123q-65 47 -147 47q-115 0 -185 -73q-69 -69 -69 -189q0 -108 72 -186q71 -74 184 -74q84 0 149 47q66 47 86 127h308q-27 -201 -179 -332q-150 -129 -364 -129q-242 0 -408 158q-159 156 -159 393t159 393
q156 156 408 156zM799 1319h-2q0 -70 -49 -119t-119 -49t-119 49t-49 119t49 119t119 49q72 0 121 -49t49 -119z" />
    <glyph glyph-name="Ccaron" unicode="&#x10c;" horiz-adv-x="1648" 
d="M1241 600l340 -6q-44 -281 -248 -455t-504 -174q-328 0 -540 215q-213 219 -213 535q0 313 213 532q212 215 540 215q286 0 492 -164q203 -162 256 -430h-350q-46 131 -150 209q-110 78 -248 78q-178 0 -294 -125q-117 -126 -117 -313q0 -188 117 -311t294 -123
q155 0 267 86q110 85 145 231zM453 1858h268l106 -158l107 158h272l-205 -306h-346z" />
    <glyph glyph-name="ccaron" unicode="&#x10d;" 
d="M256 1468h268l107 -157l106 157h273l-205 -305h-346zM633 1069l-4 -4q213 0 364 -127t178 -330h-309q-21 78 -84 123q-65 47 -147 47q-115 0 -185 -73q-69 -69 -69 -189q0 -108 72 -186q71 -74 184 -74q84 0 149 47q66 47 86 127h308q-27 -201 -179 -332
q-150 -129 -364 -129q-242 0 -408 158q-159 156 -159 393t159 393q156 156 408 156z" />
    <glyph glyph-name="Dcaron" unicode="&#x10e;" horiz-adv-x="1564" 
d="M709 0l-549 -2v1440h549q340 0 559 -195q217 -193 217 -520q0 -330 -217 -526q-218 -197 -559 -197zM485 1130l-2 -825h213q206 0 326 111q121 112 121 307q0 192 -119 299q-120 108 -326 108h-213zM342 1862h268l107 -158l106 158h273l-205 -306h-346z" />
    <glyph glyph-name="dcaron" unicode="&#x10f;" horiz-adv-x="1560" 
d="M1667 1270l-125 -277h-180l104 230q-49 15 -82 59q-30 44 -30 96q0 71 49 117q53 47 123 47t123 -47q49 -46 49 -117q0 -21 -6 -45q-5 -19 -25 -63zM559 -29l-4 -4q-217 0 -356 154q-138 150 -138 391t140 399q138 156 356 156q104 0 188 -37q88 -37 146 -110v598h311
v-1518h-293v152q-66 -90 -153 -136q-86 -45 -197 -45zM387 514h-2q0 -112 72 -190q70 -76 184 -76t184 76q72 78 72 190q0 121 -70 191q-70 73 -184 73t-184 -73q-72 -78 -72 -191z" />
    <glyph glyph-name="Dcroat" unicode="&#x110;" horiz-adv-x="1619" 
d="M764 0l-549 -2v604h-174v221h174v615h549q340 0 559 -195q217 -193 217 -520q0 -330 -217 -526q-218 -197 -559 -197zM541 602l-2 -297h213q205 0 325 111q121 112 121 307q0 192 -119 299q-120 108 -325 108h-213v-307h305v-221h-305z" />
    <glyph glyph-name="dcroat" unicode="&#x111;" horiz-adv-x="1343" 
d="M563 -27l-4 -4q-217 0 -356 154q-137 149 -137 391t139 399q138 156 356 156q105 0 189 -37q87 -37 145 -110v256h-332v217h332v125h311v-125h144v-217h-144v-1176h-293v152q-66 -90 -153 -136q-86 -45 -197 -45zM391 516h-2q0 -112 72 -190q70 -76 184 -76t184 76
q72 78 72 190q0 121 -70 191q-70 73 -184 73t-184 -73q-72 -78 -72 -191z" />
    <glyph glyph-name="Emacron" unicode="&#x112;" horiz-adv-x="1202" 
d="M1098 0h-938v1440h927v-297h-602v-273h553v-280h-553v-293h613v-297zM924 1591h-594v209h594v-209z" />
    <glyph glyph-name="emacron" unicode="&#x113;" 
d="M625 223l-2 -6q72 0 135 29q54 25 90 86h301q-50 -175 -188 -269q-140 -96 -338 -96q-244 0 -400 156q-155 155 -155 393q0 232 159 391q160 160 398 160q244 0 393 -149q151 -151 151 -383v-95h-804q21 -102 90 -159q64 -58 170 -58zM623 811q-92 0 -154 -45
q-64 -46 -92 -125h489q-24 79 -88 125q-62 45 -155 45zM918 1192h-594v209h594v-209z" />
    <glyph glyph-name="Ebreve" unicode="&#x114;" horiz-adv-x="1202" 
d="M1098 0h-938v1440h927v-297h-602v-273h553v-280h-553v-293h613v-297zM623 1538h4q-146 0 -246 92q-98 91 -98 228h227q0 -55 31 -91q30 -34 84 -34t84 34q30 35 30 91h228q0 -136 -99 -228q-100 -92 -245 -92z" />
    <glyph glyph-name="ebreve" unicode="&#x115;" 
d="M625 223l-2 -6q72 0 135 29q54 25 90 86h301q-50 -175 -188 -269q-140 -96 -338 -96q-244 0 -400 156q-155 155 -155 393q0 232 159 391q160 160 398 160q244 0 393 -149q151 -151 151 -383v-95h-804q21 -102 90 -159q64 -58 170 -58zM623 811q-92 0 -154 -45
q-64 -46 -92 -125h489q-24 79 -88 125q-62 45 -155 45zM618 1137h5q-146 0 -246 92q-98 91 -98 227h227q0 -54 31 -90q30 -35 84 -35t84 35q30 34 30 90h228q0 -136 -99 -227q-100 -92 -246 -92z" />
    <glyph glyph-name="Edotaccent" unicode="&#x116;" horiz-adv-x="1202" 
d="M795 1716h-2q0 -69 -50 -119q-49 -49 -118 -49q-70 0 -119 49t-49 119t49 119t119 49q71 0 120 -49q50 -50 50 -119zM1096 0h-938v1440h927v-297h-602v-273h553v-280h-553v-293h613v-297z" />
    <glyph glyph-name="edotaccent" unicode="&#x117;" 
d="M625 223l-2 -6q72 0 135 29q54 25 90 86h301q-50 -175 -188 -269q-140 -96 -338 -96q-244 0 -400 156q-155 155 -155 393q0 232 159 391q160 160 398 160q244 0 393 -149q151 -151 151 -383v-95h-804q21 -102 90 -159q64 -58 170 -58zM623 811q-92 0 -154 -45
q-64 -46 -92 -125h489q-24 79 -88 125q-62 45 -155 45zM791 1317h-3q0 -70 -49 -119t-118 -49q-70 0 -119 49t-49 119t49 119t119 49q71 0 120 -49q50 -50 50 -119z" />
    <glyph glyph-name="Eogonek" unicode="&#x118;" horiz-adv-x="1202" 
d="M819 0l-661 -6v1440h927v-297h-602v-273h553v-280h-553v-293h613v-297h-58q-106 -121 -141 -174q-33 -50 -33 -94q0 -33 23 -56q20 -20 61 -20q25 0 49 6q25 6 47 22v-200q-44 -26 -86 -37q-46 -12 -98 -12q-107 0 -174 61q-68 62 -68 166q0 73 39 141q39 71 162 203z
" />
    <glyph glyph-name="eogonek" unicode="&#x119;" 
d="M668 -25l-6 -10q-4 -2 -19 -2h-29q-243 0 -399 156t-156 393q0 231 160 391t397 160q244 0 394 -150q151 -151 151 -383v-94h-805q21 -103 90 -160q63 -57 170 -57q73 0 136 29q54 25 90 86h301q-14 -53 -43 -107q-31 -57 -70 -96q-165 -183 -221 -264q-51 -74 -51 -139
q0 -37 22 -56q21 -18 62 -18q25 0 49 6q23 6 47 23v-201q-38 -27 -86 -39q-46 -12 -98 -12q-107 0 -174 61q-68 62 -68 166q0 72 35 147q34 70 121 170zM618 807h3q-92 0 -154 -45q-64 -46 -92 -125h489q-27 83 -92 127q-64 43 -154 43z" />
    <glyph glyph-name="Ecaron" unicode="&#x11a;" horiz-adv-x="1202" 
d="M1098 0h-938v1440h927v-297h-602v-273h553v-280h-553v-293h613v-297zM246 1864h268l107 -158l106 158h272l-204 -305h-346z" />
    <glyph glyph-name="ecaron" unicode="&#x11b;" 
d="M246 1468h268l107 -157l106 157h272l-204 -305h-346zM625 223l-2 -6q72 0 135 29q54 25 90 86h301q-50 -175 -188 -269q-140 -96 -338 -96q-244 0 -400 156q-155 155 -155 393q0 232 159 391q160 160 398 160q244 0 393 -149q151 -151 151 -383v-95h-804q21 -102 90 -159
q64 -58 170 -58zM623 811q-92 0 -154 -45q-64 -46 -92 -125h489q-24 79 -88 125q-62 45 -155 45z" />
    <glyph glyph-name="Gcircumflex" unicode="&#x11c;" horiz-adv-x="1660" 
d="M453 1559l202 305h346l205 -305h-272l-107 157l-106 -157h-268zM1546 760l-8 -758h-270v186q-78 -103 -199 -159t-272 -56q-317 0 -521 213q-202 211 -202 535q0 313 213 532q212 215 538 215q271 0 467 -147q197 -148 256 -389h-358q-45 111 -141 170q-95 59 -222 59
q-182 0 -295 -125q-112 -124 -112 -315q0 -200 117 -326q116 -125 307 -125q144 0 250 62q104 62 145 174h-405v254h712z" />
    <glyph glyph-name="gcircumflex" unicode="&#x11d;" horiz-adv-x="1292" 
d="M233 1163l203 305h346l205 -305h-272l-107 158l-106 -158h-269zM84 -47l303 -2q6 -73 68 -117q61 -43 159 -43q105 0 170 59q62 59 62 160v168q-53 -62 -133 -98q-70 -33 -172 -33q-207 0 -336 141t-129 367q0 224 133 369q131 143 344 143q100 0 178 -37
q81 -40 137 -110v120h293v-999q0 -235 -143 -369q-144 -135 -400 -135q-224 0 -374 117q-151 118 -160 299zM395 557l-2 -4q0 -104 64 -168q65 -68 166 -68q100 0 165 68q66 72 66 170q0 107 -63 170q-65 68 -166 68t-166 -68q-64 -64 -64 -168z" />
    <glyph glyph-name="Gbreve" unicode="&#x11e;" horiz-adv-x="1660" 
d="M1546 760l-8 -758h-270v186q-78 -103 -199 -159t-272 -56q-317 0 -521 213q-202 211 -202 535q0 313 213 532q212 215 538 215q271 0 467 -147q197 -148 256 -389h-358q-45 111 -141 170q-95 59 -222 59q-182 0 -295 -125q-112 -124 -112 -315q0 -200 117 -326
q116 -125 307 -125q144 0 250 62q104 62 145 174h-405v254h712zM821 1540h4q-145 0 -245 92q-99 91 -99 228h228q0 -56 30 -91q30 -34 84 -34t84 34q31 36 31 91h227q0 -137 -98 -228q-100 -92 -246 -92z" />
    <glyph glyph-name="gbreve" unicode="&#x11f;" horiz-adv-x="1292" 
d="M84 -47l303 -2q6 -73 68 -117q61 -43 159 -43q105 0 170 59q62 59 62 160v168q-53 -62 -133 -98q-70 -33 -172 -33q-207 0 -336 141t-129 367q0 224 133 369q131 143 344 143q100 0 178 -37q81 -40 137 -110v120h293v-999q0 -235 -143 -369q-144 -135 -400 -135
q-224 0 -374 117q-151 118 -160 299zM395 557l-2 -4q0 -104 64 -168q65 -68 166 -68q100 0 165 68q66 72 66 170q0 107 -63 170q-65 68 -166 68t-166 -68q-64 -64 -64 -168zM606 1137h4q-145 0 -245 92q-99 91 -99 227h228q0 -56 30 -90q30 -35 84 -35t84 35q31 36 31 90
h227q0 -136 -98 -227q-100 -92 -246 -92z" />
    <glyph glyph-name="Gdotaccent" unicode="&#x120;" horiz-adv-x="1660" 
d="M1001 1716h-2q0 -70 -49 -119t-119 -49q-69 0 -118 49t-49 119t49 119t118 49q72 0 121 -49t49 -119zM1544 760l-8 -758h-270v186q-78 -103 -199 -159t-272 -56q-317 0 -521 213q-202 211 -202 535q0 313 213 532q212 215 538 215q271 0 467 -147q197 -148 256 -389h-358
q-45 111 -141 170q-95 59 -222 59q-182 0 -295 -125q-112 -124 -112 -315q0 -200 117 -326q116 -125 307 -125q144 0 250 62q104 62 145 174h-406v254h713z" />
    <glyph glyph-name="gdotaccent" unicode="&#x121;" horiz-adv-x="1292" 
d="M84 -47l303 -2q6 -73 68 -117q61 -43 159 -43q105 0 170 59q62 59 62 160v168q-53 -62 -133 -98q-70 -33 -172 -33q-207 0 -336 141t-129 367q0 224 133 369q131 143 344 143q100 0 178 -37q81 -40 137 -110v120h293v-999q0 -235 -143 -369q-144 -135 -400 -135
q-224 0 -374 117q-151 118 -160 299zM395 557l-2 -4q0 -104 64 -168q65 -68 166 -68q100 0 165 68q66 72 66 170q0 107 -63 170q-65 68 -166 68t-166 -68q-64 -64 -64 -168zM774 1317h-2q0 -70 -49 -119t-119 -49t-119 49t-49 119t49 119t119 49q72 0 121 -49t49 -119z" />
    <glyph glyph-name="uni0122" unicode="&#x122;" horiz-adv-x="1660" 
d="M948 -354l-114 -242h-160l90 182q-48 16 -74 54q-26 33 -26 84q0 63 43 106t108 43q68 0 111 -43t43 -106q0 -21 -6 -39zM1550 758l-8 -758h-270v186q-78 -103 -199 -159t-272 -56q-316 0 -520 213q-203 212 -203 535q0 313 213 532q212 215 538 215q271 0 467 -147
q197 -148 256 -389h-358q-45 111 -141 170q-95 59 -222 59q-181 0 -294 -125t-113 -315q0 -200 117 -326q116 -125 307 -125q144 0 250 62q104 62 145 174h-405v254h712z" />
    <glyph glyph-name="uni0123" unicode="&#x123;" horiz-adv-x="1292" 
d="M477 1382l117 240h162l-90 -182q44 -15 67 -54q25 -39 25 -81q0 -66 -43 -109t-109 -43q-63 0 -110 41q-43 40 -43 102q0 22 6 43q7 23 18 43zM82 -49l303 -2q6 -73 68 -117q61 -43 159 -43q105 0 170 59q62 59 62 160v168q-53 -62 -133 -98q-70 -33 -172 -33
q-207 0 -336 141t-129 367q0 224 133 369q131 143 344 143q100 0 178 -37q81 -40 137 -110v120h293v-999q0 -235 -143 -369q-144 -135 -400 -135q-224 0 -374 117q-151 118 -160 299zM393 555l-2 -4q0 -104 64 -168q65 -68 166 -68q100 0 165 68q66 72 66 170q0 106 -64 170
q-65 68 -165 68q-101 0 -166 -68q-64 -64 -64 -168z" />
    <glyph glyph-name="Hcircumflex" unicode="&#x124;" horiz-adv-x="1470" 
d="M485 0h-325v1440h325v-553h500v553h326v-1440h-326v580h-500v-580zM358 1559l203 305h346l205 -305h-272l-107 157l-106 -157h-269z" />
    <glyph glyph-name="hcircumflex" unicode="&#x125;" 
d="M-86 1638l203 306h346l205 -306h-273l-106 158l-107 -158h-268zM446 0l-311 -2v1518h311v-582q51 63 129 98q81 35 166 35q170 0 271 -104q102 -108 102 -279v-684h-311v600q0 89 -43 135q-44 47 -129 47q-87 0 -135 -51q-50 -53 -50 -141v-590z" />
    <glyph glyph-name="Hbar" unicode="&#x126;" horiz-adv-x="1574" 
d="M539 0h-326v1030h-162v219h162v191h326v-191h499v191h326v-191h162v-219h-162v-1030h-326v580h-499v-580zM539 1030v-143h499v143h-499z" />
    <glyph glyph-name="hbar" unicode="&#x127;" 
d="M446 0l-311 -2v1176h-141v217h141v125h311v-125h334v-217h-334v-240q51 63 129 98q81 35 166 35q170 0 271 -104q102 -108 102 -279v-684h-311v600q0 89 -43 135q-44 47 -129 47q-87 0 -135 -51q-50 -53 -50 -141v-590z" />
    <glyph glyph-name="Itilde" unicode="&#x128;" horiz-adv-x="645" 
d="M485 0h-325v1440h325v-1440zM369 1798l-4 -4q28 -21 36 -25q12 -6 23 -6q22 0 31 19q11 25 16 65h205q-9 -149 -68 -223t-166 -74q-36 0 -69 13q-32 13 -74 49q-25 26 -39 30q-14 7 -27 7q-24 0 -36 -21q-14 -28 -21 -67h-207q9 150 68 227q58 76 166 76q37 0 78 -13
q31 -8 88 -53z" />
    <glyph glyph-name="itilde" unicode="&#x129;" horiz-adv-x="585" 
d="M449 0h-312v1042h312v-1042zM336 1405l-4 -4q26 -20 37 -25q12 -6 22 -6q21 0 31 19q11 25 16 65h205q-9 -149 -68 -223t-165 -74q-40 0 -70 12t-74 50q-26 25 -39 30q-12 6 -26 6q-26 0 -37 -20q-14 -27 -21 -68h-206q9 152 67 228q57 75 166 75q40 0 78 -12
q31 -8 88 -53z" />
    <glyph glyph-name="Imacron" unicode="&#x12a;" horiz-adv-x="645" 
d="M485 0h-325v1440h325v-1440zM621 1591h-594v209h594v-209z" />
    <glyph glyph-name="imacron" unicode="&#x12b;" horiz-adv-x="585" 
d="M449 0h-312v1042h312v-1042zM588 1198h-594v209h594v-209z" />
    <glyph glyph-name="Iogonek" unicode="&#x12e;" horiz-adv-x="645" 
d="M385 -317l-4 -203q-44 -26 -86 -37q-47 -12 -98 -12q-107 0 -174 61q-68 62 -68 166q0 70 41 141q42 73 164 201v1438h325v-1440h-106q-106 -121 -141 -174q-33 -50 -33 -94q0 -34 22 -56q20 -20 62 -20q25 0 49 6q23 6 47 23z" />
    <glyph glyph-name="iogonek" unicode="&#x12f;" horiz-adv-x="585" 
d="M98 1343l2 -6q0 82 54 136q53 53 139 53q90 0 141 -51q53 -53 53 -136q0 -79 -55 -131q-51 -51 -141 -51q-86 0 -139 53q-54 54 -54 133zM365 -324l-5 -202q-44 -26 -86 -37q-46 -12 -98 -12q-107 0 -174 61q-68 62 -68 166q0 70 41 141q42 73 164 201v1040h312v-1042
h-93q-106 -121 -141 -174q-33 -50 -33 -94q0 -33 23 -56q20 -20 61 -20q25 0 49 6q26 7 48 22z" />
    <glyph glyph-name="Idotaccent" unicode="&#x130;" horiz-adv-x="645" 
d="M485 0h-325v1440h325v-1440zM496 1716h-2q0 -69 -50 -119q-49 -49 -118 -49q-70 0 -119 49t-49 119t49 119t119 49q71 0 120 -49q50 -50 50 -119z" />
    <glyph glyph-name="dotlessi" unicode="&#x131;" horiz-adv-x="585" 
d="M449 0h-312v1042h312v-1042z" />
    <glyph glyph-name="IJ" unicode="&#x132;" horiz-adv-x="1857" 
d="M485 0h-325v1440h325v-1440zM1384 1440l324 -2v-953q0 -225 -145 -370q-144 -144 -375 -144q-225 0 -371 146q-143 143 -143 375h325q3 -101 54 -158q49 -55 139 -55q88 0 141 59q51 57 51 160v942z" />
    <glyph glyph-name="ij" unicode="&#x133;" horiz-adv-x="1183" 
d="M98 1343l2 -6q0 82 54 136q53 53 139 53q90 0 141 -51q53 -53 53 -136q0 -79 -55 -131q-51 -51 -141 -51q-86 0 -139 53q-54 54 -54 133zM451 -6h-312v1042h312v-1042zM1075 1346l-2 4q0 -78 -51 -129q-52 -52 -129 -52q-79 0 -131 52q-51 51 -51 129q0 79 51 127
q52 49 131 49q80 0 131 -51t51 -129zM735 1040l305 -4v-1089q0 -213 -98 -314q-99 -102 -301 -102q-29 0 -45 2l-64 6v273q6 -2 25 -2h33q76 0 110 34q35 35 35 109v1087z" />
    <glyph glyph-name="Jcircumflex" unicode="&#x134;" horiz-adv-x="1210" 
d="M739 1440l324 -2v-953q0 -225 -145 -370q-144 -144 -375 -144q-225 0 -371 146q-143 143 -143 375h325q3 -101 54 -158q49 -55 139 -55q88 0 141 59q51 57 51 160v942zM520 1556l203 306h346l205 -306h-273l-106 158l-107 -158h-268z" />
    <glyph glyph-name="jcircumflex" unicode="&#x135;" horiz-adv-x="600" 
d="M-70 1163l203 305h346l205 -305h-272l-107 158l-106 -158h-269zM152 1042l305 -4v-1089q0 -212 -99 -314t-301 -102q-29 0 -45 2l-63 6v273l35 -2h22q77 0 111 34q35 35 35 109v1087z" />
    <glyph glyph-name="uni0136" unicode="&#x136;" horiz-adv-x="1349" 
d="M854 -354l-115 -242h-159l90 182q-48 16 -74 54q-27 34 -27 84q0 63 43 106t109 43q67 0 110 -43t43 -106q0 -21 -6 -39zM164 1438h325v-629l482 629h381l-545 -693l553 -747h-406l-465 645v-645h-325v1440z" />
    <glyph glyph-name="uni0137" unicode="&#x137;" horiz-adv-x="1138" 
d="M752 -354l-115 -242h-160l90 182q-47 15 -73 54q-27 34 -27 84q0 63 43 106t108 43q68 0 111 -43t43 -106q0 -21 -6 -39zM451 -2h-312v1518h312v-891l290 415h353l-338 -465l401 -577h-369l-337 491v-491z" />
    <glyph glyph-name="kgreenlandic" unicode="&#x138;" horiz-adv-x="1138" 
d="M446 0h-311v1042h311v-415l291 415h353l-338 -464l401 -578h-369l-338 492v-492z" />
    <glyph glyph-name="Lacute" unicode="&#x139;" horiz-adv-x="1091" 
d="M471 1559h-295l168 305h301zM1057 0h-897v1440h325v-1143h572v-297z" />
    <glyph glyph-name="lacute" unicode="&#x13a;" horiz-adv-x="585" 
d="M442 1638h-295l168 306h301zM137 1518h312v-1518h-312v1518z" />
    <glyph glyph-name="uni013B" unicode="&#x13b;" horiz-adv-x="1091" 
d="M741 -354l-114 -242h-160l90 182q-48 16 -74 54q-26 33 -26 84q0 63 43 106t108 43q68 0 111 -43t43 -106q0 -21 -6 -39zM1061 -2h-897v1440h325v-1143h572v-297z" />
    <glyph glyph-name="uni013C" unicode="&#x13c;" horiz-adv-x="585" 
d="M424 -354l-115 -242h-159l90 182q-48 16 -74 54q-27 34 -27 84q0 63 43 106t109 43q67 0 110 -43t43 -106q0 -21 -6 -39zM141 1516h312v-1518h-312v1518z" />
    <glyph glyph-name="Lcaron" unicode="&#x13d;" horiz-adv-x="1107" 
d="M942 1270l-125 -277h-180l104 230q-49 15 -82 59q-30 44 -30 96q0 71 49 117q53 47 123 47t123 -47q49 -46 49 -117q0 -21 -6 -45q-5 -19 -25 -63zM1053 -2h-897v1440h325v-1143h572v-297z" />
    <glyph glyph-name="lcaron" unicode="&#x13e;" horiz-adv-x="798" 
d="M907 1270l-125 -277h-180l105 230q-49 15 -82 59q-31 45 -31 96q0 71 49 117q53 47 123 47t123 -47q49 -46 49 -117q0 -21 -6 -45q-5 -19 -25 -63zM133 1516h311v-1518h-311v1518z" />
    <glyph glyph-name="Ldot" unicode="&#x13f;" horiz-adv-x="1130" 
d="M1057 0h-897v1440h325v-1143h572v-297zM1075 719v-2q0 -83 -59 -142q-57 -57 -148 -57q-90 0 -147 57t-57 142q0 90 57 147q60 60 147 60q90 0 148 -58q59 -59 59 -147z" />
    <glyph glyph-name="ldot" unicode="&#x140;" horiz-adv-x="970" 
d="M137 1518h312v-1518h-312v1518zM983 719v-2q0 -83 -59 -142q-57 -57 -148 -57q-90 0 -147 57q-58 58 -58 142q0 89 58 147q60 60 147 60q90 0 148 -58q59 -59 59 -147z" />
    <glyph glyph-name="Lslash" unicode="&#x141;" horiz-adv-x="1171" 
d="M1137 0h-897v461l-168 -86v248l168 86v731h325v-563l285 145v-248l-285 -145v-332h572v-297z" />
    <glyph glyph-name="lslash" unicode="&#x142;" horiz-adv-x="831" 
d="M584 0h-312v625l-209 -107v246l209 108v646h312v-486l209 109v-248l-209 -107v-786z" />
    <glyph glyph-name="Nacute" unicode="&#x143;" horiz-adv-x="1484" 
d="M893 1559h-295l168 305h301zM467 0h-307v1440h309l549 -891v891h307v-1440h-311l-547 885v-885z" />
    <glyph glyph-name="nacute" unicode="&#x144;" 
d="M776 1163h-295l168 305h301zM446 0l-311 -6v1042h297v-127q53 74 133 115q84 41 176 41q170 0 271 -104q102 -108 102 -279v-684h-311v596q0 90 -43 139t-129 49q-87 0 -135 -51q-50 -53 -50 -141v-590z" />
    <glyph glyph-name="uni0145" unicode="&#x145;" horiz-adv-x="1484" 
d="M872 -354l-114 -242h-160l90 182q-48 16 -74 54q-26 33 -26 84q0 63 43 106t108 43q68 0 111 -43t43 -106q0 -21 -6 -39zM471 -2h-307v1440h309l549 -891v891h307v-1440h-311l-547 885v-885z" />
    <glyph glyph-name="uni0146" unicode="&#x146;" 
d="M760 -354l-115 -242h-160l90 182q-47 15 -73 54q-27 34 -27 84q0 63 43 106t109 43q67 0 110 -43t43 -106q0 -21 -6 -39zM451 -2l-312 -6v1042h297v-127q53 74 133 115q84 41 176 41q169 0 271 -105q102 -108 102 -278v-684h-311v596q0 90 -43 139t-129 49
q-87 0 -135 -51q-49 -52 -49 -141v-590z" />
    <glyph glyph-name="Ncaron" unicode="&#x147;" horiz-adv-x="1484" 
d="M467 0h-307v1440h309l549 -891v891h307v-1440h-311l-547 885v-885zM367 1864h268l106 -158l107 158h272l-205 -305h-346z" />
    <glyph glyph-name="ncaron" unicode="&#x148;" 
d="M252 1468h268l107 -157l106 157h273l-205 -305h-346zM446 0l-311 -6v1042h297v-127q53 74 133 115q84 41 176 41q170 0 271 -104q102 -108 102 -279v-684h-311v596q0 90 -43 139t-129 49q-87 0 -135 -51q-50 -53 -50 -141v-590z" />
    <glyph glyph-name="napostrophe" unicode="&#x149;" 
d="M258 1395l-115 -242h-159l90 182q-48 16 -74 54q-27 35 -27 84q0 63 43 106t109 43q68 0 111 -43t43 -106q0 -18 -7 -39zM451 -2l-312 -6v1042h297v-127q53 74 133 115q84 41 176 41q169 0 271 -105q102 -108 102 -278v-684h-311v596q0 90 -43 139t-129 49
q-87 0 -135 -51q-49 -52 -49 -141v-590z" />
    <glyph glyph-name="Omacron" unicode="&#x14c;" horiz-adv-x="1689" 
d="M78 721l-2 2q0 320 215 532q219 213 551 213q334 0 553 -213q217 -211 217 -532t-217 -535q-218 -215 -553 -215q-330 0 -549 213q-215 212 -215 535zM1270 721q0 186 -121 313t-307 127q-188 0 -307 -125t-119 -315q0 -194 119 -313q120 -123 307 -123t307 123
q121 127 121 313zM1143 1593h-594v209h594v-209z" />
    <glyph glyph-name="omacron" unicode="&#x14d;" horiz-adv-x="1267" 
d="M932 1198h-594v209h594v-209zM68 522v-6q0 237 159 393q156 156 408 156q249 0 405 -156q160 -157 160 -389q0 -236 -160 -393q-156 -156 -405 -156q-242 0 -408 158q-159 156 -159 393zM891 514v-2q0 114 -74 188t-186 74q-114 0 -185 -74q-71 -77 -71 -186t71 -186
q71 -74 185 -74q112 0 186 74t74 186z" />
    <glyph glyph-name="Obreve" unicode="&#x14e;" horiz-adv-x="1689" 
d="M78 721l-2 2q0 320 215 532q219 213 551 213q334 0 553 -213q217 -211 217 -532t-217 -535q-218 -215 -553 -215q-330 0 -549 213q-215 212 -215 535zM1270 721q0 186 -121 313t-307 127q-188 0 -307 -125t-119 -315q0 -194 119 -313q120 -123 307 -123t307 123
q121 127 121 313zM844 1540h4q-146 0 -246 92q-98 91 -98 228h227q0 -55 31 -91q30 -34 84 -34t84 34q31 36 31 91h227q0 -137 -98 -228q-100 -92 -246 -92z" />
    <glyph glyph-name="obreve" unicode="&#x14f;" horiz-adv-x="1267" 
d="M68 522v-6q0 237 159 393q156 156 408 156q249 0 405 -156q160 -157 160 -389q0 -236 -160 -393q-156 -156 -405 -156q-242 0 -408 158q-159 156 -159 393zM891 514v-2q0 114 -74 188t-186 74q-114 0 -185 -74q-71 -77 -71 -186t71 -186q71 -74 185 -74q112 0 186 74
t74 186zM633 1135h4q-146 0 -246 92q-98 91 -98 227h227q0 -54 31 -90q30 -35 84 -35t84 35q31 36 31 90h227q0 -136 -98 -227q-100 -92 -246 -92z" />
    <glyph glyph-name="Ohungarumlaut" unicode="&#x150;" horiz-adv-x="1689" 
d="M666 1864h282l-139 -305h-279zM1018 1864h285l-140 -305h-280zM78 721l-2 2q0 320 215 532q219 213 551 213q334 0 553 -213q217 -211 217 -532t-217 -535q-218 -215 -553 -215q-330 0 -549 213q-215 212 -215 535zM1270 721q0 186 -121 313t-307 127q-188 0 -307 -125
t-119 -315q0 -194 119 -313q120 -123 307 -123t307 123q121 127 121 313z" />
    <glyph glyph-name="ohungarumlaut" unicode="&#x151;" horiz-adv-x="1267" 
d="M453 1468h282l-139 -305h-279zM805 1468h285l-140 -305h-280zM68 522v-6q0 237 159 393q156 156 408 156q249 0 405 -156q160 -157 160 -389q0 -236 -160 -393q-156 -156 -405 -156q-242 0 -408 158q-159 156 -159 393zM891 514v-2q0 114 -74 188t-186 74
q-114 0 -185 -74q-71 -77 -71 -186t71 -186q71 -74 185 -74q112 0 186 74t74 186z" />
    <glyph glyph-name="OE" unicode="&#x152;" horiz-adv-x="2314" 
d="M2210 0h-940v129q-93 -75 -211 -117q-110 -39 -250 -39q-301 0 -518 220q-215 218 -215 528q0 308 215 526q216 219 518 219q140 0 250 -39q120 -40 213 -116v129h928v-297h-603v-273h553v-280h-553v-293h613v-297zM1270 719q0 186 -121 313t-307 127q-188 0 -307 -125
t-119 -315q0 -194 119 -313q120 -123 307 -123t307 123q121 127 121 313z" />
    <glyph glyph-name="oe" unicode="&#x153;" horiz-adv-x="2080" 
d="M68 522l-5 -6q0 223 158 389q157 160 387 160q139 0 252 -55q114 -56 191 -158q77 103 184 158q110 55 238 55q242 0 389 -147t147 -383v-95h-805q21 -102 90 -159q64 -58 170 -58q72 0 135 29q55 26 91 86h301q-49 -173 -187 -268q-142 -97 -338 -97q-128 0 -237 56
q-110 56 -178 155q-67 -94 -189 -155q-115 -56 -250 -56q-230 0 -387 160q-157 165 -157 389zM1464 811l-2 -2q-89 0 -153 -43q-66 -44 -95 -125h490q-27 85 -88 127q-61 43 -152 43zM885 512v-2q0 114 -74 188t-186 74q-114 0 -185 -74q-71 -77 -71 -186t71 -186
q71 -74 185 -74q112 0 186 74t74 186z" />
    <glyph glyph-name="Racute" unicode="&#x154;" horiz-adv-x="1398" 
d="M485 0l-325 -2v1440h575q245 0 398 -123t153 -330q0 -154 -90 -270q-87 -112 -252 -162l416 -553h-397l-381 524h-97v-524zM719 1155l-234 -2v-369h234q106 0 164 52q61 52 61 137q0 84 -61 133t-164 49zM856 1554h-295l168 306h301z" />
    <glyph glyph-name="racute" unicode="&#x155;" horiz-adv-x="827" 
d="M621 1163h-295l168 305h301zM711 774h-6q-127 0 -195 -80t-68 -221v-471h-311v1042h297v-178q50 95 127 148q74 51 172 51q25 0 35 -2l29 -6v-293q-14 4 -31.5 6t-18.5 2q-6 2 -30 2z" />
    <glyph glyph-name="uni0156" unicode="&#x156;" horiz-adv-x="1398" 
d="M852 -354l-115 -242h-159l90 182q-48 16 -74 54q-27 34 -27 84q0 63 43 106t109 43q67 0 110 -43t43 -106q0 -21 -6 -39zM489 -2l-325 -2v1440h575q245 0 398 -123t153 -330q0 -154 -90 -270q-87 -112 -252 -162l416 -553h-397l-381 524h-97v-524zM723 1153l-234 -2v-369
h234q106 0 164 52q61 52 61 137q0 84 -61 133t-164 49z" />
    <glyph glyph-name="uni0157" unicode="&#x157;" horiz-adv-x="827" 
d="M424 -354l-115 -242h-159l90 182q-48 16 -74 54q-27 34 -27 84q0 63 43 106t109 43q67 0 110 -43t43 -106q0 -21 -6 -39zM715 772h-6q-127 0 -195 -80t-68 -221v-471h-311v1042h297v-178q50 95 127 148q74 51 172 51q25 0 35 -2l29 -6v-293q-14 4 -31.5 6t-18.5 2
q-6 2 -30 2z" />
    <glyph glyph-name="Rcaron" unicode="&#x158;" horiz-adv-x="1398" 
d="M485 0l-325 -2v1440h575q245 0 398 -123t153 -330q0 -154 -90 -270q-87 -112 -252 -162l416 -553h-397l-381 524h-97v-524zM719 1155l-234 -2v-369h234q106 0 164 52q61 52 61 137q0 84 -61 133t-164 49zM330 1860h268l107 -158l106 158h272l-204 -306h-347z" />
    <glyph glyph-name="rcaron" unicode="&#x159;" horiz-adv-x="827" 
d="M96 1468h269l106 -157l107 157h272l-205 -305h-346zM711 774h-6q-127 0 -195 -80t-68 -221v-471h-311v1042h297v-178q50 95 127 148q74 51 172 51q25 0 35 -2l29 -6v-293q-14 4 -31.5 6t-18.5 2q-6 2 -30 2z" />
    <glyph glyph-name="Sacute" unicode="&#x15a;" horiz-adv-x="1282" 
d="M635 1466l2 -10q239 0 383 -123q145 -124 160 -348h-338q-3 91 -56 141t-151 50q-87 0 -139 -37q-54 -39 -54 -99q0 -53 31 -84q30 -30 121 -57l240 -72q189 -56 276 -153q88 -94 88 -246q0 -219 -143 -338q-145 -121 -400 -121q-266 0 -419 129q-153 132 -162 373h332
q3 -103 67 -158t172 -55q111 0 162 39q55 40 55 117q0 51 -33 80q-32 30 -137 65l-233 74q-179 58 -264 155q-82 94 -82 250q0 190 147 310q142 118 375 118zM786 1548h-294l167 305h302z" />
    <glyph glyph-name="sacute" unicode="&#x15b;" horiz-adv-x="1056" 
d="M682 1163h-295l168 305h301zM532 1069l-6 -10q192 0 308 -90q115 -89 127 -252h-318q0 52 -31 80q-26 26 -92 26q-54 0 -84 -18t-30 -53q0 -39 26 -56q25 -18 105 -34l84 -19q203 -44 278 -119q80 -77 80 -205q0 -165 -119 -256q-121 -92 -325 -92q-226 0 -347 95
q-124 93 -133 272h328q0 -64 37 -98q33 -33 108 -33q63 0 99 22q35 21 35 66q0 40 -27 61q-30 24 -92 35l-101 21q-182 38 -264 114q-80 77 -80 207q0 152 121 244t313 92z" />
    <glyph glyph-name="Scircumflex" unicode="&#x15c;" horiz-adv-x="1282" 
d="M635 1466l2 -10q239 0 383 -123q145 -124 160 -348h-338q-3 91 -56 141t-151 50q-87 0 -139 -37q-54 -39 -54 -99q0 -53 31 -84q30 -30 121 -57l240 -72q189 -56 276 -153q88 -94 88 -246q0 -219 -143 -338q-145 -121 -400 -121q-266 0 -419 129q-153 132 -162 373h332
q3 -103 67 -158t172 -55q111 0 162 39q55 40 55 117q0 51 -33 80q-32 30 -137 65l-233 74q-179 58 -264 155q-82 94 -82 250q0 190 147 310q142 118 375 118zM260 1548l203 305h346l205 -305h-273l-106 158l-107 -158h-268z" />
    <glyph glyph-name="scircumflex" unicode="&#x15d;" horiz-adv-x="1056" 
d="M158 1163l202 305h347l204 -305h-272l-107 158l-106 -158h-268zM532 1069l-6 -10q192 0 308 -90q115 -89 127 -252h-318q0 52 -31 80q-26 26 -92 26q-54 0 -84 -18t-30 -53q0 -39 26 -56q25 -18 105 -34l84 -19q203 -44 278 -119q80 -77 80 -205q0 -165 -119 -256
q-121 -92 -325 -92q-226 0 -347 95q-124 93 -133 272h328q0 -64 37 -98q33 -33 108 -33q63 0 99 22q35 21 35 66q0 40 -27 61q-30 24 -92 35l-101 21q-182 38 -264 114q-80 77 -80 207q0 152 121 244t313 92z" />
    <glyph glyph-name="Scedilla" unicode="&#x15e;" horiz-adv-x="1282" 
d="M635 1466l-6 -8q239 0 383 -123t159 -348h-337q-3 91 -56 141t-151 50q-88 0 -140 -37q-53 -38 -53 -99q0 -55 33 -84q41 -32 123 -57l239 -72q191 -59 275 -155q86 -100 86 -246q0 -200 -119 -319q-121 -121 -338 -142l-47 -73q113 -3 182 -66q68 -62 68 -164
q0 -103 -78 -172q-76 -67 -196 -67q-118 0 -197 61q-79 64 -88 160l209 2q3 -23 20 -37q18 -12 49 -12q36 0 54 18t18 49q0 33 -18 51q-19 19 -52 19q-30 0 -43 -8q-19 -8 -30 -27l-176 76l124 203q-213 27 -333 153q-119 125 -125 338h332q3 -103 67 -158t172 -55
q111 0 162 39q55 40 55 117q0 51 -33 80q-32 30 -137 65l-233 74q-179 58 -264 155q-82 94 -82 250q0 190 147 310q142 118 375 118z" />
    <glyph glyph-name="scedilla" unicode="&#x15f;" horiz-adv-x="1056" 
d="M532 1069l-4 -16q192 0 308 -90q115 -89 127 -252h-318q0 52 -31 80q-26 26 -92 26q-54 0 -84 -18t-30 -54q0 -35 24 -53q25 -19 103 -37l83 -18q205 -45 279 -119q80 -77 80 -205q0 -142 -96 -235t-265 -111l-47 -73q114 -3 183 -66q67 -61 67 -164t-78 -172
q-76 -67 -196 -67q-118 0 -197 61q-79 64 -88 160l209 2q3 -23 20 -37q18 -12 50 -12q35 0 53 18t18 49q0 33 -18 51q-19 19 -51 19q-30 0 -43 -8q-20 -9 -31 -27l-176 76l125 203q-167 21 -260 114q-92 92 -101 244h328q0 -64 37 -98q33 -33 108 -33q63 0 99 22
q35 21 35 66q0 38 -27 59q-29 22 -92 37l-101 21q-182 38 -264 114q-80 77 -80 207q0 152 121 244t313 92z" />
    <glyph glyph-name="Scaron" unicode="&#x160;" horiz-adv-x="1282" 
d="M635 1466l2 -10q239 0 383 -123q145 -124 160 -348h-338q-3 91 -56 141t-151 50q-87 0 -139 -37q-54 -39 -54 -99q0 -53 31 -84q30 -30 121 -57l240 -72q189 -56 276 -153q88 -94 88 -246q0 -219 -143 -338q-145 -121 -400 -121q-266 0 -419 129q-153 132 -162 373h332
q3 -103 67 -158t172 -55q111 0 162 39q55 40 55 117q0 51 -33 80q-32 30 -137 65l-233 74q-179 58 -264 155q-82 94 -82 250q0 190 147 310q142 118 375 118zM260 1853h268l107 -157l106 157h273l-205 -305h-346z" />
    <glyph glyph-name="scaron" unicode="&#x161;" horiz-adv-x="1056" 
d="M158 1468h268l106 -157l107 157h272l-204 -305h-347zM532 1069l-6 -10q192 0 308 -90q115 -89 127 -252h-318q0 52 -31 80q-26 26 -92 26q-54 0 -84 -18t-30 -53q0 -39 26 -56q25 -18 105 -34l84 -19q203 -44 278 -119q80 -77 80 -205q0 -165 -119 -256
q-121 -92 -325 -92q-226 0 -347 95q-124 93 -133 272h328q0 -64 37 -98q33 -33 108 -33q63 0 99 22q35 21 35 66q0 40 -27 61q-30 24 -92 35l-101 21q-182 38 -264 114q-80 77 -80 207q0 152 121 244t313 92z" />
    <glyph glyph-name="uni0162" unicode="&#x162;" horiz-adv-x="1167" 
d="M483 0l-65 -8v1143h-385v297h1097v-297h-387v-1143h-57l-61 -96q113 -3 182 -66q67 -61 67 -164q0 -104 -77 -172q-76 -67 -197 -67q-118 0 -197 61q-79 64 -88 160l209 2q3 -22 21 -37q18 -12 49 -12q35 0 53 18q19 19 19 49q0 32 -19 51t-51 19q-30 0 -43 -8
q-20 -9 -31 -27l-176 76z" />
    <glyph glyph-name="uni0163" unicode="&#x163;" horiz-adv-x="847" 
d="M205 1042l-4 283l311 74v-367h244v-278h-244v-383q0 -66 29 -103q27 -30 96 -30q32 0 74 10q28 7 67 31v-273q-47 -23 -90 -31q-48 -9 -102 -12l-43 -69q113 -3 182 -66q68 -62 68 -164q0 -103 -78 -172q-76 -67 -197 -67q-117 0 -196 61q-80 65 -89 160l209 2
q3 -22 21 -37q18 -12 49 -12q35 0 53 18q19 19 19 49q0 32 -19 51t-51 19q-30 0 -43 -8q-20 -9 -31 -27l-176 76l137 221q-97 34 -147 123q-49 88 -49 233v410h-156v278h156z" />
    <glyph glyph-name="Tcaron" unicode="&#x164;" horiz-adv-x="1167" 
d="M745 0h-325v1143h-385v297h1098v-297h-388v-1143zM203 1864h268l107 -158l106 158h272l-204 -305h-346z" />
    <glyph glyph-name="tcaron" unicode="&#x165;" horiz-adv-x="847" 
d="M975 1462l-125 -276h-180l104 229q-48 15 -82 60q-30 43 -30 96q0 71 49 117q53 47 123 47q69 0 122 -47q50 -47 50 -117q0 -17 -7 -45q-8 -28 -24 -64zM201 1040l-2 289l311 74v-367h244v-278h-244v-383q0 -66 29 -103q27 -30 96 -30q32 0 74 10q28 7 67 31v-273
q-47 -21 -98 -30q-72 -11 -117 -11q-182 0 -270 94q-90 96 -90 289v410h-156v278h156z" />
    <glyph glyph-name="Tbar" unicode="&#x166;" horiz-adv-x="1204" 
d="M764 0h-326v618h-256v222h256v303h-385v297h1098v-297h-387v-303h256v-222h-256v-618z" />
    <glyph glyph-name="tbar" unicode="&#x167;" horiz-adv-x="860" 
d="M524 641l242 -4v-219h-244v-41q0 -66 29 -103q27 -30 96 -30q32 0 74 10q28 7 67 31v-273q-47 -21 -98 -30q-72 -11 -117 -11q-181 0 -270 95q-90 96 -90 288v68h-156v219h156v123h-156v278h156v293l311 74v-367h244v-278h-244v-123z" />
    <glyph glyph-name="Utilde" unicode="&#x168;" horiz-adv-x="1421" 
d="M950 1440h326v-942q0 -229 -160 -377t-405 -148q-244 0 -404 148t-160 377v942h326v-932q0 -102 62 -164q61 -61 165 -61q116 0 183 61t67 164v932zM756 1798l-4 -4q28 -21 36 -25q12 -6 23 -6q21 0 31 19q11 25 16 65h205q-9 -149 -68 -223t-166 -74q-37 0 -69 13
t-74 49q-26 26 -39 30q-14 7 -26 7q-25 0 -37 -21q-14 -28 -21 -67h-207q9 150 68 227q58 76 166 76q37 0 78 -13q31 -8 88 -53z" />
    <glyph glyph-name="utilde" unicode="&#x169;" horiz-adv-x="1220" 
d="M600 254h-6q82 0 129 53t47 142v591h311v-1042h-295v125q-55 -74 -129 -113t-170 -39q-166 0 -264 107t-98 278v684h311v-596q0 -92 43 -141t121 -49zM645 1405l-4 -4q26 -20 37 -25q12 -6 22 -6q22 0 31 19q12 29 17 65h204q-9 -150 -67 -223q-59 -74 -166 -74
q-40 0 -70 12t-74 50q-26 26 -38 30q-12 6 -27 6q-26 0 -37 -20q-12 -24 -20 -68h-207q9 152 67 228q57 75 166 75q41 0 78 -12q31 -8 88 -53z" />
    <glyph glyph-name="Umacron" unicode="&#x16a;" horiz-adv-x="1421" 
d="M950 1440h326v-942q0 -229 -160 -377t-405 -148q-244 0 -404 148t-160 377v942h326v-932q0 -102 62 -164q61 -61 165 -61q116 0 183 61t67 164v932zM1010 1591h-594v209h594v-209z" />
    <glyph glyph-name="umacron" unicode="&#x16b;" horiz-adv-x="1220" 
d="M600 254h-6q82 0 129 53t47 142v591h311v-1042h-295v125q-55 -74 -129 -113t-170 -39q-166 0 -264 107t-98 278v684h311v-596q0 -92 43 -141t121 -49zM897 1198h-594v209h594v-209z" />
    <glyph glyph-name="Ubreve" unicode="&#x16c;" horiz-adv-x="1421" 
d="M950 1440h326v-942q0 -229 -160 -377t-405 -148q-244 0 -404 148t-160 377v942h326v-932q0 -102 62 -164q61 -61 165 -61q116 0 183 61t67 164v932zM711 1538h4q-146 0 -246 92q-98 91 -98 228h227q0 -55 31 -91q30 -34 84 -34t84 34q30 35 30 91h228q0 -136 -99 -228
q-100 -92 -245 -92z" />
    <glyph glyph-name="ubreve" unicode="&#x16d;" horiz-adv-x="1220" 
d="M600 254h-6q82 0 129 53t47 142v591h311v-1042h-295v125q-55 -74 -129 -113t-170 -39q-166 0 -264 107t-98 278v684h311v-596q0 -92 43 -141t121 -49zM600 1143h4q-146 0 -246 92q-98 91 -98 227h227q0 -54 31 -90q30 -35 84 -35t84 35q31 36 31 90h227q0 -136 -98 -227
q-100 -92 -246 -92z" />
    <glyph glyph-name="Uring" unicode="&#x16e;" horiz-adv-x="1421" 
d="M956 1772l-2 2q0 -100 -71 -168t-176 -68q-107 0 -179 66q-69 63 -69 165q0 98 71 166t177 68q102 0 176 -68q73 -67 73 -163zM631 1774h-2q0 -34 22 -56t56 -22q33 0 55 22t22 56q0 33 -22 55t-55 22q-34 0 -56 -22q-20 -20 -20 -55zM946 1442h326v-942
q0 -229 -160 -377t-405 -148q-244 0 -404 148t-160 377v942h326v-932q0 -103 61 -164t166 -61q116 0 183 61t67 164v932z" />
    <glyph glyph-name="uring" unicode="&#x16f;" horiz-adv-x="1220" 
d="M854 1376l-2 2q0 -99 -72 -168q-70 -67 -176 -67q-107 0 -178 65q-70 64 -70 166q0 97 72 166q71 68 176 68q102 0 176 -68t74 -164zM528 1378h-2q0 -32 23 -55t55 -23t55 23t23 55q0 33 -23 56q-22 22 -55 22t-55 -22q-21 -21 -21 -56zM596 256h-6q82 0 129 53t47 142
v591h311v-1042h-295v125q-55 -74 -129 -113t-170 -39q-166 0 -264 107t-98 278v684h311v-596q0 -92 43 -141t121 -49z" />
    <glyph glyph-name="Uhungarumlaut" unicode="&#x170;" horiz-adv-x="1421" 
d="M530 1864h283l-139 -305h-279zM883 1864h284l-139 -305h-280zM950 1440h326v-942q0 -229 -160 -377t-405 -148q-244 0 -404 148t-160 377v942h326v-932q0 -102 62 -164q61 -61 165 -61q116 0 183 61t67 164v932z" />
    <glyph glyph-name="uhungarumlaut" unicode="&#x171;" horiz-adv-x="1220" 
d="M600 254h-6q82 0 129 53t47 142v591h311v-1042h-295v125q-55 -74 -129 -113t-170 -39q-166 0 -264 107t-98 278v684h311v-596q0 -92 43 -141t121 -49zM420 1468h282l-139 -305h-278zM772 1468h285l-139 -305h-281z" />
    <glyph glyph-name="Uogonek" unicode="&#x172;" horiz-adv-x="1421" 
d="M950 1440l322 -4v-942q0 -107 -37 -197q-34 -87 -109 -168q-172 -181 -225 -258q-55 -79 -55 -143q0 -37 22 -56q21 -18 62 -18q25 0 49 6q23 6 47 23v-201q-38 -27 -86 -39q-47 -12 -98 -12q-107 0 -174 61q-68 62 -68 166q0 70 35 145q34 69 129 172q-4 -2 -21 -2h-32
q-244 0 -404 148t-160 377v942h326v-932q0 -102 62 -164q61 -61 165 -61q116 0 183 61t67 164v932z" />
    <glyph glyph-name="uogonek" unicode="&#x173;" horiz-adv-x="1220" 
d="M600 254l-10 -2q82 0 129 53t47 141v592h311v-1042h-76q-106 -121 -141 -174q-33 -50 -33 -94q0 -33 23 -56q20 -20 61 -20q26 0 50 6q23 6 47 23v-201q-44 -26 -86 -37q-46 -12 -99 -12q-107 0 -174 61t-67 166q0 70 41 141q44 76 163 201v123q-55 -74 -129 -113
t-170 -39q-166 0 -264 107t-98 278v684h311v-596q0 -92 43 -141t121 -49z" />
    <glyph glyph-name="Wcircumflex" unicode="&#x174;" horiz-adv-x="2113" 
d="M688 1559l203 305h346l205 -305h-273l-106 157l-107 -157h-268zM795 0h-346l-410 1440h350l254 -967l275 967h301l270 -963l258 963h330l-414 -1440h-344l-260 866z" />
    <glyph glyph-name="wcircumflex" unicode="&#x175;" horiz-adv-x="1783" 
d="M520 1163l203 305h346l205 -305h-273l-106 158l-107 -158h-268zM684 0h-313l-346 1042h311l205 -649l204 649h299l207 -651l205 651h303l-346 -1042h-313l-207 621z" />
    <glyph glyph-name="Ycircumflex" unicode="&#x176;" horiz-adv-x="1363" 
d="M848 0h-326v485l-487 955h371l282 -598l299 598h342l-481 -938v-502zM330 1559l202 305h347l204 -305h-272l-106 157l-107 -157h-268z" />
    <glyph glyph-name="ycircumflex" unicode="&#x177;" horiz-adv-x="1150" 
d="M801 1042h321l-526 -1476h-313l141 403l-399 1073h329l224 -651zM201 1163l202 305h347l204 -305h-272l-107 158l-106 -158h-268z" />
    <glyph glyph-name="Ydieresis" unicode="&#x178;" horiz-adv-x="1363" 
d="M848 0h-326v485l-487 955h371l282 -598l299 598h342l-481 -938v-502zM682 1704h-2q0 -65 -43 -111q-42 -45 -107 -45q-66 0 -108 45q-43 46 -43 111t43 111q42 45 108 45q67 0 109 -45q43 -46 43 -111zM1038 1704h-2q0 -65 -43 -111q-42 -45 -106 -45q-66 0 -111 45
t-45 111t45 111t111 45t108 -45q43 -46 43 -111z" />
    <glyph glyph-name="Zacute" unicode="&#x179;" horiz-adv-x="1245" 
d="M1161 0h-1079v260l653 883h-635v297h1045v-279l-647 -864h663v-297zM772 1559h-295l168 305h301z" />
    <glyph glyph-name="zacute" unicode="&#x17a;" horiz-adv-x="1077" 
d="M686 1163h-295l168 305h301zM1010 0h-944v207l514 557h-482v278h881v-221l-487 -542h518v-279z" />
    <glyph glyph-name="Zdotaccent" unicode="&#x17b;" horiz-adv-x="1245" 
d="M795 1716h-2q0 -69 -50 -119q-49 -49 -118 -49q-70 0 -119 49t-49 119t49 119t119 49q71 0 120 -49q50 -50 50 -119zM1159 0h-1079v260l653 883h-635v297h1045v-279l-647 -864h663v-297z" />
    <glyph glyph-name="zdotaccent" unicode="&#x17c;" horiz-adv-x="1077" 
d="M1010 0h-944v207l514 557h-482v278h881v-221l-487 -542h518v-279zM707 1323h-2q0 -69 -50 -119q-49 -49 -118 -49q-70 0 -119 49t-49 119t49 119t119 49q71 0 120 -49q50 -50 50 -119z" />
    <glyph glyph-name="Zcaron" unicode="&#x17d;" horiz-adv-x="1245" 
d="M1161 0h-1079v260l653 883h-635v297h1045v-279l-647 -864h663v-297zM246 1864h268l107 -158l106 158h272l-204 -305h-346z" />
    <glyph glyph-name="zcaron" unicode="&#x17e;" horiz-adv-x="1077" 
d="M162 1468h268l107 -157l106 157h272l-204 -305h-346zM1010 0h-944v207l514 557h-482v278h881v-221l-487 -542h518v-279z" />
    <glyph glyph-name="longs" unicode="&#x17f;" horiz-adv-x="622" 
d="M446 0l-307 -4v1130q0 212 99 314t301 102q43 0 84 -6q15 -3 45.5 -7t44.5 -7v-273q-44 11 -68 13q-46 4 -55 4q-78 0 -111 -33t-33 -107v-1126z" />
    <glyph glyph-name="florin" unicode="&#x192;" horiz-adv-x="1150" 
d="M754 690l-121 -739q-40 -235 -137 -326q-104 -90 -283 -90q-45 0 -86 6q-34 5 -74 19v272q8 -3 24.5 -7t24.5 -7q27 -6 56 -6q76 0 108 32q37 34 49 111l125 735h-186v275h231l29 165q40 223 137 320q104 96 279 96q46 0 86 -6q12 -3 37 -7t37 -7v-273q-27 10 -52 13
q-36 4 -51 4q-77 0 -110 -33q-38 -35 -50 -111l-26 -161h186v-275h-233z" />
    <glyph glyph-name="uni0218" unicode="&#x218;" horiz-adv-x="1282" 
d="M784 -354l-114 -242h-160l90 182q-48 16 -74 54q-26 33 -26 84q0 63 43 106t108 43q68 0 111 -43t43 -106q0 -21 -6 -39zM639 1464l2 -10q239 0 383 -123q145 -124 160 -348h-338q-3 92 -55 141q-53 50 -152 50q-87 0 -139 -37q-54 -39 -54 -99q0 -53 31 -84
q30 -30 121 -57l240 -72q189 -56 276 -153q88 -94 88 -246q0 -219 -143 -338q-145 -121 -400 -121q-266 0 -419 129q-153 132 -162 373h332q3 -103 67 -158t172 -55q111 0 162 39q55 40 55 117q0 52 -32 80q-31 29 -138 65l-233 74q-179 58 -264 155q-82 94 -82 250
q0 190 147 310q142 118 375 118z" />
    <glyph glyph-name="uni0219" unicode="&#x219;" horiz-adv-x="1056" 
d="M670 -354l-115 -242h-160l90 182q-47 15 -73 54q-27 34 -27 84q0 63 43 106t109 43q67 0 110 -43t43 -106q0 -21 -6 -39zM537 1067l-7 -10q192 0 308 -90q115 -89 127 -252h-318q0 52 -31 80q-26 26 -92 26q-54 0 -84 -18t-30 -53q0 -39 26 -56q27 -19 105 -35l84 -18
q203 -44 278 -119q80 -77 80 -205q0 -165 -119 -256q-121 -92 -325 -92q-227 0 -346 94q-125 94 -134 273h328q0 -64 37 -98q33 -33 108 -33q63 0 99 22q35 21 35 66q0 40 -27 61q-30 24 -92 35l-101 21q-182 38 -264 114q-80 77 -80 207q0 152 121 244t314 92z" />
    <glyph glyph-name="uni021A" unicode="&#x21a;" horiz-adv-x="1167" 
d="M713 -354l-115 -242h-160l90 182q-47 15 -73 54q-27 34 -27 84q0 63 43 106t109 43q67 0 110 -43t43 -106q0 -21 -6 -39zM750 -2h-326v1143h-385v297h1098v-297h-387v-1143z" />
    <glyph glyph-name="uni021B" unicode="&#x21b;" horiz-adv-x="847" 
d="M557 -354l-115 -242h-159l90 182q-48 16 -74 54q-27 34 -27 84q0 63 43 106t109 43q68 0 111 -43t43 -106q0 -18 -7 -39zM209 1040l-2 289l311 74v-367h244v-278h-244v-383q0 -66 29 -103q27 -30 96 -30q32 0 74 10q28 7 67 31v-273q-47 -21 -98 -30q-72 -11 -117 -11
q-182 0 -270 94q-90 96 -90 289v410h-156v278h156z" />
    <glyph glyph-name="uni0237" unicode="&#x237;" horiz-adv-x="600" 
d="M152 1042l305 -4v-1089q0 -212 -99 -314t-301 -102q-29 0 -45 2l-63 6v273l35 -2h22q77 0 111 34q35 35 35 109v1087z" />
    <glyph glyph-name="circumflex" unicode="&#x2c6;" horiz-adv-x="897" 
d="M72 1163l202 305h347l204 -305h-272l-107 158l-106 -158h-268z" />
    <glyph glyph-name="caron" unicode="&#x2c7;" horiz-adv-x="935" 
d="M68 1468h268l106 -157l107 157h272l-205 -305h-346z" />
    <glyph glyph-name="uni02C9" unicode="&#x2c9;" horiz-adv-x="755" 
d="M676 1198h-594v209h594v-209z" />
    <glyph glyph-name="breve" unicode="&#x2d8;" horiz-adv-x="813" 
d="M406 1143h4q-146 0 -246 92q-98 91 -98 227h227q0 -54 31 -90q30 -35 84 -35t84 35q30 34 30 90h228q0 -136 -99 -227q-100 -92 -245 -92z" />
    <glyph glyph-name="dotaccent" unicode="&#x2d9;" horiz-adv-x="501" 
d="M420 1323h-2q0 -70 -49 -119t-119 -49t-119 49t-49 119t49 119t119 49q72 0 121 -49t49 -119z" />
    <glyph glyph-name="ring" unicode="&#x2da;" horiz-adv-x="610" 
d="M553 1376l-2 2q0 -99 -72 -168q-70 -67 -176 -67q-107 0 -178 65q-70 64 -70 166q0 97 72 166q71 68 176 68q102 0 176 -68t74 -164zM227 1378h-2q0 -32 23 -55t55 -23t55 23t23 55q0 33 -23 56q-22 22 -55 22t-55 -22q-21 -21 -21 -56z" />
    <glyph glyph-name="ogonek" unicode="&#x2db;" horiz-adv-x="614" 
d="M100 -342l-2 -2q0 70 41 141q42 73 178 221h222q-112 -123 -156 -192q-37 -58 -37 -98q0 -33 23 -56q20 -20 61 -20q25 0 49 6q23 6 47 23v-201q-44 -26 -86 -37q-47 -12 -98 -12q-107 0 -174 61q-68 62 -68 166z" />
    <glyph glyph-name="tilde" unicode="&#x2dc;" horiz-adv-x="829" 
d="M459 1405l-4 -4q26 -20 37 -25q12 -6 22 -6q22 0 31 19q11 25 16 65h205q-9 -149 -68 -223t-166 -74q-39 0 -69 12t-74 50q-25 25 -39 30q-12 6 -26 6q-26 0 -37 -20q-14 -27 -21 -68h-207q9 151 68 228q57 75 166 75q41 0 78 -12q31 -8 88 -53z" />
    <glyph glyph-name="hungarumlaut" unicode="&#x2dd;" horiz-adv-x="937" 
d="M219 1468h283l-140 -305h-278zM571 1468h285l-139 -305h-281z" />
    <glyph glyph-name="uni0394" unicode="&#x394;" horiz-adv-x="1353" 
d="M502 1440h350l432 -1200v-240h-1216v240zM668 1057l-258 -766h516z" />
    <glyph glyph-name="uni03A9" unicode="&#x3a9;" horiz-adv-x="1609" 
d="M723 0l-604 -8v297h237q-132 106 -204 237q-68 127 -68 277q0 282 201 471q200 188 510 188q314 0 512 -186q202 -187 202 -469q0 -149 -67 -277q-66 -126 -205 -235h236v-297h-594v369q152 84 225 188q74 106 74 240q0 154 -107 258t-270 104q-164 0 -271 -104
q-106 -103 -106 -258q0 -134 74 -240q71 -103 225 -186v-369z" />
    <glyph glyph-name="uni03BC" unicode="&#x3bc;" horiz-adv-x="1255" 
d="M623 254l-7 -4q82 0 129 53q48 54 48 141v592h311v-1042h-295v125q-53 -71 -129 -111q-74 -39 -166 -39q-11 0 -31 4q-13 4 -24 11v-420h-312v1476h312v-596q0 -92 43 -141t121 -49z" />
    <glyph glyph-name="pi" unicode="&#x3c0;" horiz-adv-x="1402" 
d="M68 1042h1267v-284h-149v-758h-312v758h-348v-758h-311v758h-147v284z" />
    <glyph glyph-name="Wgrave" unicode="&#x1e80;" horiz-adv-x="2113" 
d="M920 1559l-175 305h302l167 -305h-294zM795 0h-346l-410 1440h350l254 -967l275 967h301l270 -963l258 963h330l-414 -1440h-344l-260 866z" />
    <glyph glyph-name="wgrave" unicode="&#x1e81;" horiz-adv-x="1783" 
d="M684 0h-313l-346 1042h311l205 -649l204 649h299l207 -651l205 651h303l-346 -1042h-313l-207 621zM750 1163l-175 305h302l167 -305h-294z" />
    <glyph glyph-name="Wacute" unicode="&#x1e82;" horiz-adv-x="2113" 
d="M1214 1559h-294l167 305h302zM795 0h-346l-410 1440h350l254 -967l275 967h301l270 -963l258 963h330l-414 -1440h-344l-260 866z" />
    <glyph glyph-name="wacute" unicode="&#x1e83;" horiz-adv-x="1783" 
d="M1044 1163h-294l168 305h301zM684 0h-313l-346 1042h311l205 -649l204 649h299l207 -651l205 651h303l-346 -1042h-313l-207 621z" />
    <glyph glyph-name="Wdieresis" unicode="&#x1e84;" horiz-adv-x="2113" 
d="M795 0h-346l-410 1440h350l254 -967l275 967h301l270 -963l258 963h330l-414 -1440h-344l-260 866zM1042 1704h-2q0 -65 -43 -111q-42 -45 -106 -45q-67 0 -109 45q-43 46 -43 111t43 111q42 45 109 45q66 0 108 -45q43 -46 43 -111zM1399 1704h-2q0 -65 -43 -111
q-42 -45 -107 -45t-110 45t-45 111t45 111t110 45q67 0 109 -45q43 -46 43 -111z" />
    <glyph glyph-name="wdieresis" unicode="&#x1e85;" horiz-adv-x="1783" 
d="M872 1311h-2q0 -65 -43 -111q-42 -45 -106 -45q-67 0 -109 45q-43 46 -43 111q0 64 43 110q42 45 109 45q66 0 108 -45q43 -46 43 -110zM1229 1311h-2q0 -65 -43 -111q-42 -45 -107 -45t-110 45t-45 111q0 65 45 110t110 45q67 0 109 -45q43 -46 43 -110zM680 0h-313
l-347 1042h312l205 -649l204 649h299l207 -651l205 651h303l-346 -1042h-313l-207 621z" />
    <glyph glyph-name="uni1E9E" unicode="&#x1e9e;" horiz-adv-x="1501" 
d="M942 1149l-119 -6q-169 0 -264 -92q-94 -91 -94 -263v-794h-326v799q0 300 189 471q188 170 497 170h461v-256l-246 -349q169 -15 277 -129t108 -276q0 -209 -135 -332t-360 -123q-82 0 -162 13q-74 13 -137 36v291q61 -28 125 -43q60 -14 135 -14q105 0 156 45
q55 46 55 129q0 68 -47 115t-121 47q-34 0 -53 -8q-25 -11 -45 -25l-185 190z" />
    <glyph glyph-name="Ygrave" unicode="&#x1ef2;" horiz-adv-x="1363" 
d="M848 0h-326v485l-487 955h371l282 -598l299 598h342l-481 -938v-502zM561 1559l-174 305h301l168 -305h-295z" />
    <glyph glyph-name="ygrave" unicode="&#x1ef3;" horiz-adv-x="1150" 
d="M801 1042h321l-526 -1476h-313l141 403l-399 1073h329l224 -651zM430 1163l-174 305h301l168 -305h-295z" />
    <glyph glyph-name="endash" unicode="&#x2013;" horiz-adv-x="1142" 
d="M119 662h905v-269h-905v269z" />
    <glyph glyph-name="emdash" unicode="&#x2014;" horiz-adv-x="2115" 
d="M119 662h1878v-269h-1878v269z" />
    <glyph glyph-name="quoteleft" unicode="&#x2018;" horiz-adv-x="577" 
d="M305 1440l217 -6l-168 -334q57 -20 92 -74q35 -53 35 -111q0 -90 -57 -147t-148 -57q-88 0 -147 59q-57 57 -57 145q0 35 8 56q8 25 24 61z" />
    <glyph glyph-name="quoteright" unicode="&#x2019;" horiz-adv-x="591" 
d="M309 745h-221l168 334q-57 20 -92 74q-33 50 -33 111q0 90 57 147q59 59 148 59q90 0 147 -57q60 -60 60 -143q0 -35 -8 -56q-5 -15 -25 -61z" />
    <glyph glyph-name="quotesinglbase" unicode="&#x201a;" horiz-adv-x="581" 
d="M262 -346h-221l168 334q-58 21 -92 73q-33 50 -33 111q0 90 57 147q60 60 148 60q90 0 147 -57q60 -60 60 -144q0 -31 -9 -55q-10 -29 -24 -62z" />
    <glyph glyph-name="quotedblleft" unicode="&#x201c;" horiz-adv-x="1069" 
d="M305 1440l217 -6l-168 -334q57 -20 92 -74q35 -53 35 -111q0 -90 -57 -147t-148 -57q-88 0 -147 59q-57 57 -57 145q0 35 8 56q8 25 24 61zM793 1434l217 -7l-168 -333q57 -20 92 -74q35 -53 35 -111q0 -89 -58 -147q-57 -57 -147 -57q-89 0 -148 59q-57 57 -57 145
q0 35 8 56q5 15 25 61z" />
    <glyph glyph-name="quotedblright" unicode="&#x201d;" horiz-adv-x="1081" 
d="M309 745h-221l168 334q-57 20 -92 74q-33 50 -33 111q0 90 57 147q59 59 148 59q90 0 147 -57q60 -60 60 -143q0 -35 -8 -56q-5 -15 -25 -61zM801 745h-221l168 334q-58 21 -93 74q-32 49 -32 111q0 90 57 147q59 59 147 59q91 0 148 -57q59 -59 59 -143q0 -35 -8 -56
q-5 -15 -25 -61z" />
    <glyph glyph-name="quotedblbase" unicode="&#x201e;" horiz-adv-x="1071" 
d="M262 -346h-221l168 334q-58 21 -92 73q-33 50 -33 111q0 90 57 147q60 60 148 60q90 0 147 -57q60 -60 60 -144q0 -31 -9 -55q-10 -29 -24 -62zM754 -346h-222l168 334q-58 21 -92 73q-33 50 -33 111q0 89 58 147q60 60 147 60q91 0 148 -57q59 -59 59 -144q0 -34 -8 -55
q-6 -19 -25 -62z" />
    <glyph glyph-name="dagger" unicode="&#x2020;" horiz-adv-x="978" 
d="M59 827v258h275v308l311 71v-379h275v-258h-275v-778l-311 -74v852h-275z" />
    <glyph glyph-name="daggerdbl" unicode="&#x2021;" horiz-adv-x="1050" 
d="M96 356v258h273v213h-273v258h273v308l311 71v-379h274v-258h-274v-213h274v-258h-274v-307l-311 -74v381h-273z" />
    <glyph glyph-name="bullet" unicode="&#x2022;" horiz-adv-x="819" 
d="M700 743h-6q0 -117 -82 -196q-83 -80 -202 -80q-123 0 -203 80t-80 196q0 123 80 203t207 80t207 -80q79 -79 79 -203z" />
    <glyph glyph-name="ellipsis" unicode="&#x2026;" horiz-adv-x="1591" 
d="M494 172v-2q0 -81 -60 -141q-58 -58 -147 -58q-90 0 -148 58q-57 57 -57 141q0 90 57 147q60 60 148 60q89 0 147 -58q60 -60 60 -147zM1001 170v-2q0 -82 -59 -141q-58 -58 -147 -58q-90 0 -148 58q-57 57 -57 141q0 90 57 147q60 60 148 60q89 0 147 -58
q59 -59 59 -147zM1509 168v-2q0 -82 -59 -141q-58 -58 -147 -58q-90 0 -148 58q-57 57 -57 141q0 90 57 147q60 60 148 60q89 0 147 -58q59 -59 59 -147z" />
    <glyph glyph-name="perthousand" unicode="&#x2030;" horiz-adv-x="2365" 
d="M774 1110l-2 -4q0 -149 -100 -246q-101 -98 -258 -98q-156 0 -254 98q-99 99 -99 248q0 147 99 246q98 98 256 98q157 0 258 -98q100 -97 100 -244zM1227 1436h239l-1112 -1440h-239zM274 1104l-4 -4q0 -58 41 -99q40 -40 103 -40q60 0 100 40q39 39 39 103q0 65 -39 104
q-40 43 -100 43q-61 0 -101 -43q-39 -39 -39 -104zM1520 324l-2 -5q0 -147 -101 -245q-102 -99 -254 -99q-155 0 -254 99q-98 98 -98 248q0 147 98 245q99 99 256 99q152 0 254 -99q101 -98 101 -243zM2302 319l-2 -4q0 -148 -100 -245q-102 -99 -254 -99q-155 0 -254 99
t-99 247q0 147 99 246t256 99q152 0 254 -99q100 -97 100 -244zM1020 313l-4 -4q0 -59 41 -100q39 -39 102 -39q60 0 101 41q38 38 38 102q0 67 -38 105q-40 43 -101 43q-60 0 -100 -43q-39 -39 -39 -105zM1800 309l-4 -4q0 -59 41 -100q39 -39 102 -39q60 0 101 41
q39 39 39 102q0 66 -39 105q-40 43 -101 43q-60 0 -100 -43q-39 -39 -39 -105z" />
    <glyph glyph-name="guilsinglleft" unicode="&#x2039;" horiz-adv-x="665" 
d="M289 74l-223 448l223 451h301l-223 -451l223 -448h-301z" />
    <glyph glyph-name="guilsinglright" unicode="&#x203a;" horiz-adv-x="665" 
d="M377 971l223 -449l-223 -450h-301l223 450l-223 449h301z" />
    <glyph glyph-name="fraction" unicode="&#x2044;" horiz-adv-x="335" 
d="M604 1440h240l-1112 -1440h-240z" />
    <glyph glyph-name="zero.superior" unicode="&#x2070;" horiz-adv-x="708" 
d="M639 1262h-4q0 -126 -80 -197q-84 -72 -205 -72t-205 72q-79 70 -79 197v217q0 126 79 196q76 70 207 70t207 -70q80 -71 80 -196v-217zM350 1548l-8 -8q-37 0 -57 -20q-21 -21 -21 -58v-200q0 -35 23 -58q20 -20 59 -20q38 0 60 22t22 60v200q0 40 -20 60q-22 22 -58 22
z" />
    <glyph glyph-name="four.superior" unicode="&#x2074;" horiz-adv-x="694" 
d="M49 1272l248 457h235l-243 -437h108v99l201 47v-146h49v-184h-49v-100h-201v100h-348v164z" />
    <glyph glyph-name="five.superior" unicode="&#x2075;" horiz-adv-x="643" 
d="M119 1729l426 -3v-186h-258l-6 -67l28 4h29q120 0 184 -64q68 -65 68 -172q0 -108 -76 -178t-190 -70q-117 0 -193 64q-80 65 -92 166h211q10 -22 24 -31q17 -10 41 -10q32 0 50 18t18 47t-18 47q-19 19 -50 19q-19 0 -34 -6q-17 -7 -29 -19l-170 25z" />
    <glyph glyph-name="six.superior" unicode="&#x2076;" horiz-adv-x="647" 
d="M328 993l-2 2q-119 0 -199 74t-80 182q0 52 19 111q20 59 61 125l152 244h237l-162 -238q116 -3 183 -70t67 -170q0 -107 -80 -184q-76 -76 -196 -76zM250 1253v-2q0 -37 20 -57t56 -20q33 0 55 22q20 20 20 55q0 36 -20 56q-22 22 -55 22q-36 0 -56 -20t-20 -56z" />
    <glyph glyph-name="seven.superior" unicode="&#x2077;" horiz-adv-x="610" 
d="M336 1534h-287v195h518v-166l-256 -555h-227z" />
    <glyph glyph-name="eight.superior" unicode="&#x2078;" horiz-adv-x="679" 
d="M625 1225h-4q0 -101 -80 -166q-84 -66 -205 -66t-205 66q-80 65 -80 166q0 51 27 98t80 74q-31 25 -52 65q-18 38 -18 78q0 85 70 143t180 58t180 -58t70 -143q0 -38 -19 -78q-21 -41 -51 -65q53 -27 80 -74t27 -98zM270 1524h-2q0 -27 19 -43q24 -17 49 -17t49 17
q18 15 18 43t-18 43q-22 16 -51 16q-23 0 -45 -16q-19 -16 -19 -43zM250 1233l4 -2q0 -33 22 -55q21 -21 62 -21q40 0 61 21q23 23 23 55q0 33 -25 55q-30 23 -61 23q-41 0 -62 -21q-24 -21 -24 -55z" />
    <glyph glyph-name="nine.superior" unicode="&#x2079;" horiz-adv-x="647" 
d="M319 1743v-2q119 0 199 -74t80 -182q0 -55 -18 -111q-19 -55 -62 -125l-151 -243h-238l162 237q-116 3 -180 70q-68 68 -68 170q0 107 80 184q76 76 196 76zM395 1483v-6q0 39 -20 59q-23 23 -56 23q-32 0 -55 -23q-20 -20 -20 -55q0 -36 20 -56t55 -20q34 0 56 22
q20 20 20 56z" />
    <glyph glyph-name="zero.inferior" unicode="&#x2080;" horiz-adv-x="708" 
d="M639 -35h-4q0 -125 -80 -196q-84 -72 -205 -72t-205 72q-79 70 -79 196v217q0 127 79 197q76 70 207 70t207 -70q80 -71 80 -197v-217zM350 252l-8 -8q-36 0 -57 -21t-21 -57v-201q0 -34 23 -57q21 -21 59 -21q37 0 60 23q22 22 22 59v201q0 39 -20 59q-23 23 -58 23z
" />
    <glyph glyph-name="one.inferior" unicode="&#x2081;" horiz-adv-x="458" 
d="M367 -289h-205v527h-133l47 194h291v-721z" />
    <glyph glyph-name="two.inferior" unicode="&#x2082;" horiz-adv-x="673" 
d="M612 -289l-544 -12v162l256 229q30 30 41 49q12 24 12 51q0 22 -15 37t-38 15q-26 0 -43 -17q-16 -16 -19 -43h-209q6 109 84 187q76 73 197 73q118 0 188 -61q72 -63 72 -164q0 -62 -31 -119q-32 -54 -117 -133l-65 -59h231v-195z" />
    <glyph glyph-name="three.inferior" unicode="&#x2083;" horiz-adv-x="671" 
d="M51 -70h203q5 -31 25 -47q22 -16 49 -16q35 0 53 18t18 54q0 35 -24 53t-70 18h-59v144h53q39 0 61 16q21 15 21 47q0 27 -16 43t-43 16q-28 0 -46 -18q-17 -17 -20 -49h-203q6 105 80 170q77 65 195 65q121 0 190 -57q72 -60 72 -143q0 -58 -21 -92q-21 -37 -63 -62
q53 -24 80 -65q26 -39 26 -103q0 -97 -75 -160t-205 -63q-124 0 -197 61q-75 63 -84 170z" />
    <glyph glyph-name="four.inferior" unicode="&#x2084;" horiz-adv-x="694" 
d="M49 -25l248 457h235l-243 -436h108v98l201 47v-145h49v-184h-49v-101h-201v101h-348v163z" />
    <glyph glyph-name="five.inferior" unicode="&#x2085;" horiz-adv-x="643" 
d="M121 432l426 -2v-186h-258l-6 -68l28 4h29q121 0 184 -63q68 -65 68 -172q0 -108 -76 -178t-190 -70q-118 0 -193 63q-80 65 -92 166h211q9 -21 24 -30q18 -11 41 -11q31 0 50 19q18 18 18 47t-18 47t-50 18q-19 0 -34 -6q-18 -7 -29 -18l-170 24z" />
    <glyph glyph-name="six.inferior" unicode="&#x2086;" horiz-adv-x="647" 
d="M330 -303l-2 2q-119 0 -199 74t-80 182q0 52 19 111q19 57 61 124l152 244h237l-162 -237q116 -3 183 -70t67 -170q0 -107 -80 -184q-76 -76 -196 -76zM252 -43v-2q0 -37 20 -57q21 -21 56 -21q32 0 55 23q20 20 20 55t-20 55q-23 23 -55 23q-35 0 -56 -21
q-20 -20 -20 -55z" />
    <glyph glyph-name="seven.inferior" unicode="&#x2087;" horiz-adv-x="608" 
d="M336 238h-287v194h518v-166l-256 -555h-227z" />
    <glyph glyph-name="eight.inferior" unicode="&#x2088;" horiz-adv-x="679" 
d="M625 -72h-4q0 -101 -80 -166q-83 -65 -205 -65t-205 65q-80 65 -80 166q0 52 27 99q26 45 80 73q-30 24 -52 66q-18 38 -18 78q0 85 70 143q69 57 180 57t180 -57q70 -58 70 -143q0 -38 -19 -78q-22 -43 -51 -66q54 -28 80 -73q27 -47 27 -99zM270 227h-2q0 -27 19 -43
q22 -16 49 -16t49 16q18 15 18 43t-18 43q-24 17 -51 17q-21 0 -45 -17q-19 -16 -19 -43zM250 -63l4 -3q0 -33 22 -55q20 -20 62 -20q41 0 61 20q23 23 23 55q0 34 -25 56q-28 22 -61 22q-42 0 -62 -20q-24 -21 -24 -55z" />
    <glyph glyph-name="nine.inferior" unicode="&#x2089;" horiz-adv-x="645" 
d="M317 446v-2q120 0 199 -73q80 -74 80 -183q0 -54 -18 -110q-19 -55 -62 -125l-151 -244h-238l162 238q-117 3 -180 69q-68 68 -68 170q0 108 80 185q75 75 196 75zM393 186v-6q0 40 -20 60q-22 22 -56 22q-33 0 -55 -22q-20 -20 -20 -56q0 -35 20 -55t55 -20q34 0 56 22
q20 20 20 55z" />
    <glyph glyph-name="franc" unicode="&#x20a3;" horiz-adv-x="1853" 
d="M496 0h-326v1440h866v-297h-540v-287h491v-297h-491v-559zM1712 774h-6q-127 0 -195 -80q-67 -79 -67 -221v-471h-311v1042h297v-178q50 96 126 148q74 51 173 51q24 0 34 -2l29 -6v-293q-14 4 -31 6t-18 2q-6 2 -31 2z" />
    <glyph glyph-name="Euro" unicode="&#x20ac;" horiz-adv-x="1382" 
d="M557 674l256 -10v-203h-256q9 -88 66 -139q56 -50 143 -50q99 0 152 56q53 59 53 155h325q0 -243 -147 -381q-143 -137 -387 -137q-230 0 -373 131q-146 134 -158 369h-145v203h145v90h-145v203h145q9 235 154 368t375 133q243 0 387 -135q145 -136 145 -381h-325
q0 96 -54 156q-52 55 -151 55q-89 0 -141 -49q-53 -50 -62 -141h256v-203h-258v-90z" />
    <glyph glyph-name="uni2113" unicode="&#x2113;" horiz-adv-x="989" 
d="M221 381l-133 -66v295l135 76v387q0 180 103 289q102 108 270 108q158 0 258 -92q98 -91 98 -235q0 -162 -98 -299q-106 -147 -303 -275l-14 -10v-143q0 -94 26 -127q27 -37 88 -37q40 0 86 16q42 15 84 49v-278q-52 -34 -110 -49q-55 -15 -129 -15q-184 0 -273 99
q-88 94 -88 307zM606 1200l-2 -2q-35 0 -53 -24q-19 -25 -19 -72v-225q69 58 105 118q33 56 33 133q0 30 -17 54q-15 18 -47 18z" />
    <glyph glyph-name="trademark" unicode="&#x2122;" horiz-adv-x="1775" 
d="M465 662h-203v585h-199v193h601v-193h-199v-585zM932 662h-199v778h228l225 -434l231 434h217v-778h-196v413l-213 -413h-80l-213 419v-419z" />
    <glyph glyph-name="Omega" unicode="&#x2126;" horiz-adv-x="1609" 
d="M723 0l-604 -8v297h237q-132 106 -204 237q-68 127 -68 277q0 282 201 471q200 188 510 188q314 0 512 -186q202 -187 202 -469q0 -149 -67 -277q-66 -126 -205 -235h236v-297h-594v369q152 84 225 188q74 106 74 240q0 154 -107 258t-270 104q-164 0 -271 -104
q-106 -103 -106 -258q0 -134 74 -240q71 -103 225 -186v-369z" />
    <glyph glyph-name="estimated" unicode="&#x212e;" horiz-adv-x="1654" 
d="M844 117l-4 -2q152 0 293 78q135 78 217 215h186q-116 -209 -299 -322q-180 -113 -399 -113q-307 0 -535 220q-221 218 -221 526q0 310 221 528q227 219 535 219q337 0 544 -223q209 -226 209 -602h-1110v-403q88 -63 172 -91q91 -30 191 -30zM836 1317q-96 0 -191 -31
q-85 -26 -168 -90v-405h707v413q-73 56 -162 84q-98 29 -186 29z" />
    <glyph glyph-name="uni2153" unicode="&#x2153;" horiz-adv-x="1523" 
d="M442 719h-204v526h-134l48 195h290v-721zM1169 1440h240l-1112 -1440h-240zM872 219h203q5 -31 25 -47q22 -16 49 -16q35 0 53 18q19 19 19 53q0 35 -25 54q-24 18 -70 18h-59v143h53q38 0 62 17q20 14 20 47q0 27 -16 43t-43 16t-45 -18t-21 -49h-203q6 105 80 170
q77 65 195 65q121 0 190 -57q72 -60 72 -144q0 -59 -20 -92q-19 -35 -64 -61q52 -24 80 -66q27 -40 27 -102q0 -96 -76 -160q-75 -63 -205 -63q-124 0 -197 61q-75 63 -84 170z" />
    <glyph glyph-name="uni2154" unicode="&#x2154;" horiz-adv-x="1626" 
d="M631 719l-545 -12v161l256 230q30 30 41 49q12 24 12 51q0 23 -14 37t-39 14q-27 0 -43 -16q-15 -15 -18 -43h-209q6 108 84 186q77 74 196 74t189 -61q71 -62 71 -164q0 -63 -30 -119q-32 -54 -117 -133l-66 -60h232v-194zM1284 1427h240l-1112 -1439h-240zM987 207h203
q5 -32 24 -47q24 -17 50 -17q34 0 53 19q18 18 18 53t-24 53q-25 19 -70 19h-59v143h53q39 0 61 16q21 15 21 48q0 26 -17 43q-16 16 -43 16t-45 -18q-17 -17 -20 -50h-203q6 105 80 170q78 66 195 66q121 0 190 -57q72 -60 72 -144q0 -58 -21 -92q-20 -35 -63 -61
q52 -24 80 -66q26 -39 26 -102q0 -97 -75 -160q-76 -64 -205 -64q-123 0 -197 62q-75 63 -84 170z" />
    <glyph glyph-name="uni2155" unicode="&#x2155;" horiz-adv-x="1519" 
d="M1169 1440h240l-1112 -1440h-240zM442 719h-204v526h-134l48 195h290v-721zM958 721l426 -2v-187h-258l-6 -67q28 4 29 4h29q121 0 184 -63q68 -65 68 -173t-76 -178q-75 -69 -191 -69q-117 0 -192 63q-80 65 -92 166h211q10 -22 24 -31q17 -10 41 -10q30 0 49 19t19 47
t-19 47q-18 18 -49 18q-20 0 -35 -6q-17 -7 -28 -18l-170 24z" />
    <glyph glyph-name="uni2156" unicode="&#x2156;" horiz-adv-x="1613" 
d="M631 719l-545 -12v161l256 230q30 30 41 49q12 24 12 51q0 23 -14 37t-39 14q-27 0 -43 -16q-15 -15 -18 -43h-209q6 108 84 186q77 74 196 74t189 -61q71 -62 71 -164q0 -63 -30 -119q-32 -54 -117 -133l-66 -60h232v-194zM1276 1427h240l-1113 -1439h-239zM1061 709
l426 -2v-187h-258l-6 -67l28 4h29q120 0 184 -64q68 -65 68 -172q0 -108 -76 -178t-190 -70q-117 0 -193 64q-80 65 -92 166h211q9 -22 25 -31q17 -10 40 -10q32 0 50 18t18 47t-18 47q-19 19 -50 19q-19 0 -34 -6q-17 -7 -29 -19l-170 25z" />
    <glyph glyph-name="uni2157" unicode="&#x2157;" horiz-adv-x="1554" 
d="M1217 1440h239l-1112 -1440h-240zM1008 721l426 -2v-187h-258l-7 -67q28 4 29 4h29q121 0 184 -63q68 -65 68 -173t-76 -178q-75 -69 -191 -69q-117 0 -192 63q-80 65 -92 166h211q10 -22 24 -31q17 -10 41 -10q30 0 49 19t19 47t-19 47q-18 18 -49 18q-20 0 -35 -6
q-17 -7 -28 -18l-170 24zM72 936h202q5 -31 25 -47q24 -17 49 -17q34 0 53 19t19 53t-25 53t-69 19h-60v143h53q38 0 62 17q20 14 20 47q0 27 -16 43t-43 16t-45 -18t-21 -50h-202q6 105 80 170q78 66 194 66q122 0 191 -57q71 -59 71 -144q0 -59 -20 -92q-19 -35 -64 -61
q52 -24 80 -66q27 -41 27 -102q0 -96 -76 -160q-75 -63 -205 -63q-123 0 -196 61q-75 63 -84 170z" />
    <glyph glyph-name="uni2158" unicode="&#x2158;" horiz-adv-x="1636" 
d="M61 983l248 457h236l-244 -436h109v98l200 47v-145h49v-185h-49v-100h-200v100h-349v164zM1290 1440h240l-1112 -1440h-240zM1079 721l426 -2v-187h-258l-6 -67q28 4 29 4h28q122 0 185 -63q67 -64 67 -173t-75 -178t-191 -69q-117 0 -192 63q-81 66 -93 166h211
q9 -22 25 -31q17 -10 41 -10q30 0 49 19q18 18 18 47t-18 47t-49 18q-20 0 -35 -6q-18 -7 -29 -18l-170 24z" />
    <glyph glyph-name="uni2159" unicode="&#x2159;" horiz-adv-x="1482" 
d="M1110 -14l-2 2q-120 0 -199 73q-80 74 -80 183q0 51 19 110q20 59 61 125l152 244h237l-161 -238q116 -3 182 -69q67 -67 67 -170q0 -109 -79 -185q-75 -75 -197 -75zM1032 246v-2q0 -37 21 -58q20 -20 55 -20q33 0 55 22q21 21 21 56q0 34 -21 55q-23 23 -55 23
q-34 0 -55 -21t-21 -55zM440 719h-204v526h-134l48 195h290v-721zM1167 1440h240l-1112 -1440h-240z" />
    <glyph glyph-name="uni215A" unicode="&#x215a;" horiz-adv-x="1544" 
d="M1180 -14l-2 2q-120 0 -199 73q-80 74 -80 183q0 51 19 110q20 59 61 125l151 244h238l-162 -238q117 -3 183 -69q67 -67 67 -170q0 -108 -80 -185q-75 -75 -196 -75zM1102 246v-2q0 -38 20 -58t56 -20q33 0 55 22q20 20 20 56q0 35 -20 55q-23 23 -55 23q-35 0 -56 -21
q-20 -20 -20 -55zM1237 1440h240l-1112 -1440h-240zM141 1440l426 -2v-187h-258l-6 -67q28 4 29 4h28q121 0 185 -64q67 -64 67 -172q0 -109 -75 -178t-191 -69q-117 0 -192 63q-81 66 -93 166h211q9 -22 25 -31q17 -10 41 -10q31 0 49 18q19 19 19 47q0 29 -19 48
q-18 18 -49 18q-20 0 -35 -6q-17 -7 -29 -19l-170 25z" />
    <glyph glyph-name="uni215B" unicode="&#x215b;" horiz-adv-x="1515" 
d="M1169 1440h240l-1112 -1440h-240zM442 719h-204v526h-134l48 195h290v-721zM1430 217h-5q0 -102 -79 -166q-83 -65 -205 -65t-205 65q-80 65 -80 166q0 51 27 98t80 74q-30 24 -52 66q-18 38 -18 77q0 86 70 144q69 57 180 57t180 -57q70 -58 70 -144q0 -37 -19 -77
q-22 -43 -51 -66q53 -27 80 -74q27 -46 27 -98zM1075 516h-2q0 -27 19 -43q22 -16 49 -16t49 16q18 15 18 43t-18 43q-22 16 -51 16q-23 0 -45 -16q-19 -16 -19 -43zM1055 225l4 -2q0 -33 22 -55q21 -21 62 -21q40 0 61 21q23 23 23 55q0 34 -25 56q-28 22 -61 22
q-42 0 -62 -20q-24 -21 -24 -56z" />
    <glyph glyph-name="uni215C" unicode="&#x215c;" horiz-adv-x="1556" 
d="M1223 1440h239l-1112 -1440h-239zM1483 217h-4q0 -101 -80 -166q-83 -65 -205 -65t-205 65q-80 65 -80 166q0 51 27 98t80 74q-29 23 -51 66q-19 40 -19 77q0 86 70 144q69 57 180 57t180 -57q70 -58 70 -144q0 -37 -19 -77q-22 -43 -51 -66q53 -27 80 -74q27 -46 27 -98
zM1128 516h-2q0 -27 19 -43q22 -16 49 -16t49 16q19 16 19 43t-19 43q-22 16 -51 16q-23 0 -45 -16q-19 -16 -19 -43zM1108 225l4 -2q0 -32 23 -55q21 -21 61 -21t61 21q23 23 23 55q0 34 -25 56q-28 22 -61 22q-41 0 -61 -20q-25 -22 -25 -56zM68 936h202q5 -31 25 -47
q24 -17 49 -17q34 0 53 19t19 53t-25 53t-69 19h-60v143h53q38 0 62 17q20 14 20 47q0 27 -16 43t-43 16t-45 -18t-21 -50h-202q6 105 80 170q78 66 194 66q122 0 191 -57q71 -59 71 -144q0 -59 -20 -92q-19 -35 -64 -61q52 -24 80 -66q27 -41 27 -102q0 -96 -76 -160
q-75 -63 -205 -63q-123 0 -196 61q-75 63 -84 170z" />
    <glyph glyph-name="uni215D" unicode="&#x215d;" horiz-adv-x="1574" 
d="M1239 1440h240l-1112 -1440h-240zM143 1440l426 -2v-187h-258l-6 -67q28 4 29 4h28q121 0 185 -64q67 -64 67 -172q0 -109 -75 -178t-191 -69q-117 0 -192 63q-81 66 -93 166h211q9 -22 25 -31q17 -10 41 -10q31 0 49 18q19 19 19 47q0 29 -19 48q-18 18 -49 18
q-20 0 -35 -6q-17 -7 -29 -19l-170 25zM1495 215h-4q0 -101 -80 -166q-83 -65 -205 -65t-205 65q-79 64 -79 166q0 53 26 98q27 47 80 74q-29 23 -51 66q-19 40 -19 77q0 86 70 144q69 57 180 57q112 0 181 -57t69 -144q0 -40 -18 -77q-22 -43 -51 -66q51 -26 79 -74
q27 -47 27 -98zM1141 514h-2q0 -28 18 -43q22 -16 49 -16t49 16q19 16 19 43t-19 43q-22 16 -51 16q-23 0 -45 -16q-18 -15 -18 -43zM1120 223l4 -2q0 -32 23 -55q21 -21 61 -21q41 0 62 21q22 22 22 55q0 34 -24 55q-30 23 -62 23q-41 0 -61 -20q-25 -22 -25 -56z" />
    <glyph glyph-name="uni215E" unicode="&#x215e;" horiz-adv-x="1521" 
d="M414 1245h-287v195h518v-166l-256 -555h-227zM1171 1440h240l-1112 -1440h-240zM1440 217h-4q0 -101 -80 -166q-83 -65 -205 -65t-205 65q-80 65 -80 166q0 51 27 98t80 74q-29 23 -51 66q-19 40 -19 77q0 86 70 144q69 57 180 57t180 -57q70 -58 70 -144q0 -37 -19 -77
q-22 -43 -51 -66q53 -27 80 -74q27 -46 27 -98zM1085 516h-2q0 -27 19 -43q22 -16 49 -16t49 16q19 16 19 43t-19 43q-22 16 -51 16q-23 0 -45 -16q-19 -16 -19 -43zM1065 225l4 -2q0 -32 23 -55q21 -21 61 -21t61 21q23 23 23 55q0 34 -25 56q-28 22 -61 22q-41 0 -61 -20
q-25 -22 -25 -56z" />
    <glyph glyph-name="uni215F" unicode="&#x215f;" horiz-adv-x="1472" 
d="M469 719h-205v526h-133l47 195h291v-721zM1194 1440h240l-1112 -1440h-240z" />
    <glyph glyph-name="partialdiff" unicode="&#x2202;" horiz-adv-x="1253" 
d="M55 496l-4 2q0 207 135 348t336 141q104 0 189 -31q82 -30 141 -92q-56 182 -203 281q-147 100 -383 115v286q439 -12 670 -258q229 -241 229 -686q0 -270 -159 -448q-159 -179 -406 -179q-229 0 -387 152t-158 369zM856 496q0 99 -70 163q-72 66 -180 66
q-104 0 -176 -66q-68 -65 -68 -163q0 -100 68 -168t176 -68q107 0 178 68q72 69 72 168z" />
    <glyph glyph-name="Delta" unicode="&#x2206;" horiz-adv-x="1353" 
d="M502 1440h350l432 -1200v-240h-1216v240zM668 1057l-258 -766h516z" />
    <glyph glyph-name="product" unicode="&#x220f;" horiz-adv-x="1579" 
d="M555 0h-326v1143h-151v297h1423v-297h-151v-1143h-326v1143h-469v-1143z" />
    <glyph glyph-name="summation" unicode="&#x2211;" horiz-adv-x="1267" 
d="M90 1212v228h1071v-297h-645l318 -383l-330 -463h678v-297h-1084v211l391 530z" />
    <glyph glyph-name="minus" unicode="&#x2212;" horiz-adv-x="1167" 
d="M109 594v246h950v-246h-950z" />
    <glyph glyph-name="uni2215" unicode="&#x2215;" horiz-adv-x="335" 
d="M604 1440h240l-1112 -1440h-240z" />
    <glyph glyph-name="uni2219" unicode="&#x2219;" horiz-adv-x="901" 
d="M741 743h-6q0 -117 -82 -196q-83 -80 -202 -80q-123 0 -203 80t-80 196q0 123 80 203t207 80t207 -80q79 -79 79 -203z" />
    <glyph glyph-name="radical" unicode="&#x221a;" horiz-adv-x="1243" 
d="M780 0h-348l-233 735h-154v273h399l166 -570l299 1002h322z" />
    <glyph glyph-name="infinity" unicode="&#x221e;" horiz-adv-x="1669" 
d="M461 913v-2q109 0 207 -55q99 -55 172 -160q76 108 166 164q91 55 200 55q153 0 267 -108q110 -107 110 -270q0 -164 -110 -271q-114 -108 -267 -108q-109 0 -207 55q-96 56 -172 164q-74 -110 -168 -166q-91 -55 -198 -55q-156 0 -264 108q-109 109 -109 271
q0 161 109 270q108 108 264 108zM469 668l-2 -2q-61 0 -98 -37t-37 -101q0 -63 37 -100t98 -37q56 0 100 33q46 34 86 104q-36 61 -84 101q-45 39 -100 39zM1200 389l2 -2q61 0 98 37t37 98q0 66 -37 103t-98 37q-52 0 -100 -31q-43 -28 -86 -99q37 -64 86 -104
q45 -39 98 -39z" />
    <glyph glyph-name="integral" unicode="&#x222b;" horiz-adv-x="866" 
d="M588 1126l-6 -1179q0 -212 -99 -314t-301 -102q-44 0 -88 6q-34 5 -86 19v272q10 -3 31 -7t31 -7q40 -7 61 -7q76 0 111 35q34 34 34 109v1175q0 212 99 314t301 102q42 0 86 -6q16 -3 45.5 -7t44.5 -7v-273q-42 11 -66 13q-46 4 -55 4q-77 0 -110 -33t-33 -107z" />
    <glyph glyph-name="approxequal" unicode="&#x2248;" horiz-adv-x="1167" 
d="M637 1059h-4q82 -31 98 -35q35 -6 62 -6q67 0 112 26q49 25 99 101v-277q-23 -45 -89 -80q-60 -32 -143 -32q-40 0 -98 10q-46 9 -113 43q-68 30 -98 37q-45 10 -78 10q-71 0 -121 -33q-54 -34 -106 -106v266q36 55 98 94t141 39q53 0 105 -12q60 -14 135 -45zM633 629
h-4q82 -31 98 -35q34 -6 61 -6q68 0 113 26q47 24 98 101v-277q-23 -45 -88 -80q-60 -32 -143 -32q-40 0 -98 10q-46 9 -113 43q-68 30 -98 37q-45 10 -78 10q-71 0 -121 -33q-54 -34 -106 -106v266q36 55 98 94t141 39q53 0 105 -12q60 -14 135 -45z" />
    <glyph glyph-name="notequal" unicode="&#x2260;" horiz-adv-x="1167" 
d="M465 184h-244l88 181h-200v247h319l102 209h-421v248h540l88 180h244l-88 -180h166v-248h-285l-102 -209h387v-247h-506z" />
    <glyph glyph-name="lessequal" unicode="&#x2264;" horiz-adv-x="1167" 
d="M1022 332l-891 389v248l891 389v-301l-496 -213l496 -211v-301zM131 2v248h891v-248h-891z" />
    <glyph glyph-name="greaterequal" unicode="&#x2265;" horiz-adv-x="1167" 
d="M145 332v301l496 211l-496 213v301l891 -389v-248zM1036 2h-891v248h891v-248z" />
    <glyph glyph-name="lozenge" unicode="&#x25ca;" horiz-adv-x="1269" 
d="M530 -27l-471 777l478 716h194l479 -716l-471 -777h-209zM635 1126l-252 -381l252 -417l252 417z" />
    <glyph glyph-name="zero.denominator" unicode="&#xf655;" horiz-adv-x="708" 
d="M639 254h-4q0 -126 -80 -197q-83 -71 -205 -71t-205 71q-79 70 -79 197v217q0 127 79 197q75 69 207 69t207 -69q80 -71 80 -197v-217zM350 541l-8 -9q-37 0 -57 -20q-21 -21 -21 -57v-201q0 -34 23 -57q21 -21 59 -21q37 0 60 23q22 22 22 59v201q0 39 -20 59
q-23 23 -58 23z" />
    <glyph glyph-name="one.denominator" unicode="&#xf656;" horiz-adv-x="460" 
d="M367 0h-205v526h-133l47 195h291v-721z" />
    <glyph glyph-name="two.denominator" unicode="&#xf657;" horiz-adv-x="671" 
d="M612 0l-544 -12v162l256 229q30 30 41 49q12 24 12 51q0 22 -15 37q-14 14 -38 14q-27 0 -43 -16t-19 -43h-209q6 108 84 186q77 74 197 74q118 0 188 -61q72 -63 72 -164q0 -62 -31 -119q-32 -54 -117 -133l-65 -59h231v-195z" />
    <glyph glyph-name="three.denominator" unicode="&#xf658;" horiz-adv-x="671" 
d="M51 219h203q5 -31 25 -47q22 -16 49 -16q35 0 53 18t18 53q0 36 -24 54t-70 18h-59v143h53q37 0 61 17q21 15 21 47q0 27 -16 43t-43 16q-28 0 -46 -18q-17 -17 -20 -49h-203q6 105 80 170q77 65 195 65q121 0 190 -57q72 -60 72 -144q0 -58 -21 -92q-20 -35 -63 -61
q52 -24 80 -66q26 -39 26 -102q0 -97 -75 -160t-205 -63q-124 0 -197 61q-75 63 -84 170z" />
    <glyph glyph-name="four.denominator" unicode="&#xf659;" horiz-adv-x="692" 
d="M47 264l248 457h235l-243 -436h108v98l201 47v-145h49v-185h-49v-100h-201v100h-348v164z" />
    <glyph glyph-name="five.denominator" unicode="&#xf65a;" horiz-adv-x="645" 
d="M121 721l426 -2v-187h-258l-6 -67q5 1 11.5 2t10 1.5t6.5 0.5h29q121 0 184 -63q68 -65 68 -173t-76 -178q-75 -69 -190 -69q-118 0 -193 63q-80 65 -92 166h211q10 -22 24 -31q17 -10 41 -10q31 0 50 19q18 18 18 47t-18 47t-50 18q-19 0 -34 -6q-18 -7 -29 -18l-170 24
z" />
    <glyph glyph-name="six.denominator" unicode="&#xf65b;" horiz-adv-x="645" 
d="M328 -14l-2 2q-120 0 -199 73q-80 74 -80 183q0 51 19 110q20 59 61 125l152 244h237l-162 -238q117 -3 183 -69q67 -67 67 -170q0 -108 -80 -185q-75 -75 -196 -75zM250 246v-2q0 -38 20 -58t56 -20q33 0 55 22q20 20 20 56q0 35 -20 55q-23 23 -55 23q-35 0 -56 -21
q-20 -20 -20 -55z" />
    <glyph glyph-name="seven.denominator" unicode="&#xf65c;" horiz-adv-x="610" 
d="M336 526h-287v195h518v-166l-256 -555h-227z" />
    <glyph glyph-name="eight.denominator" unicode="&#xf65d;" horiz-adv-x="679" 
d="M625 217h-4q0 -101 -80 -166q-83 -65 -205 -65t-205 65q-80 65 -80 166q0 51 27 98t80 74q-30 24 -52 66q-18 37 -18 77q0 86 70 144q69 57 180 57t180 -57q70 -58 70 -144q0 -37 -19 -77q-22 -43 -51 -66q53 -27 80 -74t27 -98zM270 516h-2q0 -27 19 -43q22 -16 49 -16
t49 16q18 15 18 43t-18 43q-22 16 -51 16q-23 0 -45 -16q-19 -16 -19 -43zM250 225l4 -2q0 -33 22 -55q21 -21 62 -21q40 0 61 21q23 23 23 55q0 34 -25 56q-28 22 -61 22q-42 0 -62 -20q-24 -21 -24 -56z" />
    <glyph glyph-name="nine.denominator" unicode="&#xf65e;" horiz-adv-x="647" 
d="M319 735v-2q119 0 199 -74t80 -182q0 -55 -18 -110q-19 -55 -62 -125l-151 -244h-238l162 238q-117 3 -180 69q-68 68 -68 170q0 107 80 184q76 76 196 76zM395 475v-6q0 39 -20 59q-23 23 -56 23q-32 0 -55 -23q-20 -20 -20 -55t20 -55q21 -21 55 -21q33 0 56 23
q20 20 20 55z" />
    <glyph glyph-name="zero.numerator" unicode="&#xf661;" horiz-adv-x="708" 
d="M639 973h-4q0 -126 -80 -197q-83 -71 -205 -71t-205 71q-79 70 -79 197v217q0 126 79 196q76 70 207 70t207 -70q80 -71 80 -196v-217zM350 1260l-8 -9q-37 0 -57 -20q-21 -21 -21 -57v-201q0 -35 23 -58q20 -20 59 -20q37 0 60 23q22 22 22 59v201q0 39 -20 59
q-23 23 -58 23z" />
    <glyph glyph-name="one.numerator" unicode="&#xf662;" horiz-adv-x="456" 
d="M362 719h-204v526h-133l47 195h290v-721z" />
    <glyph glyph-name="two.numerator" unicode="&#xf663;" horiz-adv-x="675" 
d="M614 719l-544 -12v161l256 230q30 30 41 49q12 24 12 51q0 23 -14 37t-39 14q-27 0 -43 -16t-19 -43h-209q6 108 84 186q77 74 197 74q118 0 188 -61q72 -63 72 -164q0 -62 -31 -119q-33 -56 -116 -133l-66 -60h231v-194z" />
    <glyph glyph-name="three.numerator" unicode="&#xf664;" horiz-adv-x="671" 
d="M51 938h203q5 -31 25 -47q24 -17 49 -17q34 0 53 19q18 18 18 53t-24 53q-25 19 -70 19h-59v143h53q37 0 61 17q21 15 21 47q0 27 -16 43t-43 16q-28 0 -46 -18q-17 -17 -20 -49h-203q6 104 80 169q78 66 195 66q121 0 190 -57q72 -60 72 -144q0 -57 -21 -92
q-20 -35 -63 -61q52 -24 80 -66q26 -39 26 -102q0 -97 -75 -160t-205 -63q-124 0 -197 61q-75 63 -84 170z" />
    <glyph glyph-name="four.numerator" unicode="&#xf665;" horiz-adv-x="694" 
d="M49 983l248 457h235l-243 -436h108v98l201 47v-145h49v-185h-49v-100h-201v100h-348v164z" />
    <glyph glyph-name="five.numerator" unicode="&#xf666;" horiz-adv-x="643" 
d="M119 1440l426 -2v-187h-258l-6 -67l28 4h29q120 0 184 -64q68 -65 68 -172q0 -108 -76 -178q-75 -69 -190 -69q-118 0 -193 63q-80 65 -92 166h211q10 -22 24 -31q17 -10 41 -10q32 0 50 18t18 47q0 30 -18 48t-50 18q-19 0 -34 -6q-17 -7 -29 -19l-170 25z" />
    <glyph glyph-name="six.numerator" unicode="&#xf667;" horiz-adv-x="647" 
d="M330 705l-2 2q-120 0 -199 73q-80 74 -80 183q0 51 19 110q20 59 61 125l152 244h237l-162 -238q117 -3 183 -69q67 -67 67 -170q0 -108 -80 -185q-75 -75 -196 -75zM252 965v-2q0 -38 20 -58t56 -20q33 0 55 22q20 20 20 56q0 35 -20 55q-22 22 -55 22q-36 0 -56 -20
t-20 -55z" />
    <glyph glyph-name="seven.numerator" unicode="&#xf668;" horiz-adv-x="606" 
d="M334 1245h-287v195h518v-166l-256 -555h-227z" />
    <glyph glyph-name="eight.numerator" unicode="&#xf669;" horiz-adv-x="679" 
d="M625 936h-4q0 -101 -80 -166q-83 -65 -205 -65t-205 65q-80 65 -80 166q0 51 27 98t80 74q-30 24 -52 66q-18 38 -18 77q0 86 70 144q69 57 180 57t180 -57q70 -58 70 -144q0 -37 -19 -77q-22 -43 -51 -66q53 -27 80 -74q27 -46 27 -98zM270 1235h-2q0 -27 19 -43
q22 -16 49 -16t49 16q18 15 18 43t-18 43q-22 16 -51 16q-23 0 -45 -16q-19 -16 -19 -43zM250 944l4 -2q0 -33 22 -55q21 -21 62 -21q40 0 61 21q23 23 23 55q0 33 -25 55q-30 23 -61 23q-41 0 -62 -21q-24 -21 -24 -55z" />
    <glyph glyph-name="nine.numerator" unicode="&#xf66a;" horiz-adv-x="647" 
d="M319 1454v-2q119 0 199 -74t80 -182q0 -56 -18 -111q-18 -53 -62 -124l-151 -244h-238l162 237q-116 3 -180 70q-68 68 -68 170q0 107 80 184q76 76 196 76zM395 1194v-6q0 39 -20 59q-23 23 -56 23q-32 0 -55 -23q-20 -20 -20 -55t20 -55q21 -21 55 -21q33 0 56 23
q20 20 20 55z" />
    <glyph glyph-name="commaaccent" unicode="&#xf6c3;" horiz-adv-x="458" 
d="M362 -326l-114 -241h-160l90 182q-49 16 -74 53q-26 33 -26 84q0 64 43 107t108 43q68 0 111 -43t43 -107q0 -21 -6 -39z" />
    <glyph glyph-name="uniF8FF" unicode="&#xf8ff;" horiz-adv-x="2945" 
d="M1518 1071v-74h63q6 0 18 -4q7 -3 7 -16v-55q0 -12 -7 -19q-6 -6 -18 -6h-63v-158q0 -17 12 -26q8 -8 37 -8h20q12 0 19 -7q6 -6 6 -18v-55q0 -13 -6 -19t-19 -6h-39q-80 0 -123 29q-36 26 -36 96v172h-35q-13 0 -19 6t-6 19v51q0 2 4 14q2 7 19 10l32 2h2v74q0 12 7 19
q6 6 18 6h80q14 0 20 -6q7 -7 7 -21zM717 999l82 -4q12 0 18 -6t6 -18v-13q34 25 62 35q37 11 59 11q33 0 62 -13q28 -13 43 -39q43 34 63 41q32 13 68 13q53 0 84 -31q30 -30 30 -80v-270q0 -13 -6 -19t-20 -6h-78q-15 0 -21 6t-6 19v237q0 21 -6 27t-22 6q-23 0 -39 -8
q-13 -7 -39 -25v-239q0 -13 -6 -19t-19 -6h-78q-14 0 -20 6t-6 19v237q0 21 -6 27t-25 6q-23 0 -39 -8q-18 -7 -37 -21v-239q0 -7 -4 -19q-3 -6 -16 -6h-84q-13 0 -19 6t-6 19v350q0 12 6 18t19 6zM2087 995h74q14 0 20 -6t6 -18l2 -15q33 26 60 35q33 10 61 10q58 0 88 -30
q31 -31 31 -90v-164q0 -58 -31 -94q-29 -33 -88 -33q-28 0 -61 10q-28 9 -56 31v-170q0 -13 -6 -19t-18 -6h-82q-13 0 -19 6t-6 19v510q0 12 6 18t19 6zM463 1004l-2 -3q83 0 127 -30q43 -30 43 -94v-89q0 -12 -6 -18t-19 -6h-190v-47q0 -18 12 -27q8 -8 37 -8q20 0 37 10
q12 9 12 29v2q0 12 6 18q7 7 19 7h65q12 0 19 -7q6 -6 6 -18v-6q0 -64 -41 -94q-42 -31 -123 -31q-85 0 -129 33q-45 33 -45 94v162q0 62 43 92q45 31 129 31zM2660 1001l-6 -2q84 0 127 -30t43 -95v-88q0 -12 -6 -18t-18 -6h-193v-47q0 -18 12 -27q8 -8 37 -8q20 0 37 10
q12 9 12 29v2q0 11 7 18q6 6 18 6h66q12 0 18 -6t6 -18v-6q0 -65 -39 -94q-42 -31 -123 -31q-88 0 -127 33q-43 34 -43 94v162q0 62 43 92t129 30zM1757 969l35 -146q6 -14 10 -45q1 -6 2 -13l1.5 -10.5t0.5 -6.5q3 3 9 26q3 8 6 24t6 23l49 148q3 16 10 18q12 4 17 4h75
q15 0 21 -6q6 -9 4 -16l-172 -510q-3 -11 -10 -17q-6 -6 -17 -6h-57q-15 0 -21 6t-2 17l33 121l-133 389q-4 11 2 16q6 6 23 6h82q4 0 16 -4q7 -2 10 -18zM444 903v-4q-28 0 -36 -8q-13 -10 -13 -27v-22h99v22q0 19 -13 29q-17 10 -37 10zM2644 899l2 -4q-29 0 -37 -8
q-12 -9 -12 -27v-22h96v22q0 20 -12 29q-17 10 -37 10zM2251 686l2 2q18 0 26 8q9 9 9 27v127q0 16 -9 22q-11 7 -26 7q-13 0 -31 -7q-9 -2 -45 -24v-129q10 -5 21.5 -11t17.5 -9.5t10 -6.5q12 -6 25 -6zM1149 459l-4 -84h96q6 0 6 -2v-6v-17q0 -6 -2 -8t-6 -2h-96v-254
q0 -33 24 -51q25 -19 78 -19h12q5 0 7 -2q4 -4 4 -6v-14q0 -4 -2 -6t-6 -2h-19q-66 0 -102 22q-31 22 -31 74v258h-51q-4 0 -6 2t-2 8v15q0 4 2 6l6 6h51v84v8q0 2 6 2h23l6 -6zM834 383l-9 2q69 0 105 -25q35 -24 35 -73v-101q0 -4 -2 -6t-7 -2h-233v-98q0 -33 25 -49
q31 -17 77 -17q43 0 74 17q25 16 25 49v16q0 4 2 6t12 2h18q7 0 9 -2t2 -6v-18q0 -52 -35 -76q-36 -25 -105 -25q-68 0 -104 25q-35 24 -35 74v209q0 49 37 73q39 25 109 25zM313 371l6 -43q38 27 68 37q35 12 68 12q52 0 80 -25t28 -67v-295q0 -4 -2 -6t-6 -2h-23h-6
q-2 0 -2 10v287q0 33 -20 47q-22 16 -62 16q-36 0 -71 -12t-56 -33v-303q0 -4 -2 -6t-6 -2h-22q-7 0 -9 2t-2 8v375q0 4 2 6t9 2h18q6 0 8 -2t2 -6zM831 342h-2q-46 0 -75 -16q-25 -16 -25 -50v-73h201v73q0 34 -25 50q-29 16 -74 16zM145 49v-61q0 -6 -2 -8q-3 -3 -8 -3
h-22q-4 0 -7 3q-2 2 -2 8v61q0 6 2 8t7 2h22q6 0 8 -2t2 -8z" />
    <glyph glyph-name="f_f" unicode="&#xfb00;" horiz-adv-x="1560" 
d="M539 0l-314 -8v764h-157v278h157v88q0 211 101 312q101 104 301 104q30 0 84 -4q33 -2 92 -16v-273q-38 8 -70 12q-8 1 -25.5 3t-25.5 2q-78 0 -111 -33q-32 -32 -32 -107v-84h434v88q0 212 100 312q101 104 301 104q42 0 86 -6q15 -3 44.5 -7t45.5 -7v-273l-73 13
q-36 4 -50 4q-77 0 -110 -33t-33 -107v-84h242v-278h-242v-764h-311v764h-434v-764z" />
    <glyph glyph-name="fi" unicode="&#xfb01;" horiz-adv-x="1400" 
d="M539 0l-310 -8v764h-157v278h157v88q0 211 101 312q101 104 301 104q30 0 84 -4q39 -3 80 -12v-273l-68 13q-32 4 -45 4q-78 0 -111 -33q-32 -32 -32 -107v-84h243v-278h-243v-764zM918 1335l2 -6q0 82 53 135q54 54 139 54q89 0 141 -52q54 -54 54 -135q0 -78 -56 -131
q-51 -51 -141 -51q-86 0 -139 53t-53 133zM1270 -14h-312v1042h312v-1042z" />
    <glyph glyph-name="fl" unicode="&#xfb02;" horiz-adv-x="1400" 
d="M539 0l-310 -8v764h-157v278h157v88q0 211 101 312q101 104 301 104q30 0 84 -4q39 -3 80 -12v-273l-68 13q-32 4 -45 4q-78 0 -111 -33q-32 -32 -32 -107v-84h243v-278h-243v-764zM956 1509h312v-1517h-312v1517z" />
    <glyph glyph-name="f_f_i" unicode="&#xfb03;" horiz-adv-x="2146" 
d="M539 0l-314 -12v764h-157v278h157v88q0 211 101 312q101 104 301 104q30 0 84 -4q26 -2 92 -17v-272q-38 8 -70 12q-46 4 -51 4q-79 0 -111 -32t-32 -107v-84h434v88q0 212 100 312q101 104 301 104q30 0 84 -4q39 -3 80 -12v-273q-42 11 -61 13q-36 4 -50 4
q-77 0 -110 -33t-33 -107v-84h242v-278h-242v-764h-311v764h-434v-764zM1657 1331l2 -6q0 82 53 135t139 53q91 0 142 -51q53 -53 53 -135q0 -79 -55 -131q-51 -51 -142 -51q-86 0 -139 53t-53 133zM2009 -18h-311v1042h311v-1042z" />
    <glyph glyph-name="f_f_l" unicode="&#xfb04;" horiz-adv-x="2146" 
d="M539 0l-314 -12v764h-157v278h157v88q0 211 101 312q101 104 301 104q30 0 84 -4q26 -2 92 -17v-272q-38 8 -70 12q-46 4 -51 4q-79 0 -111 -32t-32 -107v-84h434v88q0 212 100 312q101 104 301 104q30 0 84 -4q39 -3 80 -12v-273q-42 11 -61 13q-36 4 -50 4
q-77 0 -110 -33t-33 -107v-84h242v-278h-242v-764h-311v764h-434v-764zM1696 1505h311v-1517h-311v1517z" />
    <glyph glyph-name="longs_t" unicode="&#xfb05;" horiz-adv-x="1472" 
d="M446 0l-307 -4v1130q0 212 99 314t301 102q43 0 84 -6q15 -3 45.5 -7t44.5 -7v-273q-44 11 -68 13q-46 4 -55 4q-78 0 -111 -33t-33 -107v-1126zM834 1038l-3 289l312 74v-367h243v-278h-243v-383q0 -67 28 -103q27 -30 97 -30q31 0 73 10q30 8 68 31v-273
q-51 -23 -98 -31q-65 -10 -117 -10q-182 0 -270 94q-90 96 -90 289v410h-156v278h156z" />
    <glyph glyph-name="zero.tab" unicode="&#xff10;" horiz-adv-x="1228" 
d="M1163 932v-422q0 -251 -151 -393t-398 -142q-246 0 -397 142t-151 393v422q0 251 151 393q150 141 397 141q248 0 398 -141q151 -142 151 -393zM610 1159h-4q-104 0 -162 -61q-57 -57 -57 -168v-418q0 -111 57 -168q58 -61 162 -61q111 0 170 59q60 60 60 170v418
q0 112 -58 170q-59 59 -168 59z" />
    <glyph glyph-name="one.tab" unicode="&#xff11;" horiz-adv-x="1228" 
d="M1085 0h-897v297h285v846h-270l73 297h523v-1143h286v-297z" />
    <glyph glyph-name="two.tab" unicode="&#xff12;" horiz-adv-x="1228" 
d="M1153 0l-1073 2v250l559 522q69 66 98 117q31 54 31 110q0 73 -45 115q-46 43 -125 43q-88 0 -141 -53q-54 -54 -66 -148h-334q12 224 164 367q150 141 393 141q223 0 361 -120q139 -121 139 -320q0 -120 -59 -235q-60 -112 -226 -261l-258 -233h582v-297z" />
    <glyph glyph-name="three.tab" unicode="&#xff13;" horiz-adv-x="1228" 
d="M74 432l325 -10q12 -73 68 -117q55 -43 141 -43q90 0 142 49q53 50 53 127q0 87 -55 133q-59 47 -156 47h-154v236h160q77 0 123 43q45 42 45 119q0 65 -45 104q-47 41 -123 41q-84 0 -129 -39q-48 -39 -57 -112h-328q12 198 154 325q145 127 368 127q220 0 350 -112
q134 -116 134 -279q0 -109 -43 -188t-129 -129q109 -45 163 -131q56 -86 56 -211q0 -187 -142 -314q-137 -125 -379 -125q-237 0 -380 125q-144 126 -162 334z" />
    <glyph glyph-name="four.tab" unicode="&#xff14;" horiz-adv-x="1228" 
d="M29 487l518 953h375l-510 -908h323v256l318 76v-332h141v-290h-141v-242h-318v242h-706v245z" />
    <glyph glyph-name="five.tab" unicode="&#xff15;" horiz-adv-x="1228" 
d="M223 1440l821 -8v-297h-565l-20 -226q59 19 88 25q36 8 92 8q230 0 362 -129q134 -131 134 -346q0 -214 -148 -356t-373 -142q-221 0 -378 127q-154 130 -175 332h334q15 -75 72 -117q55 -43 135 -43q86 0 152 60q61 58 61 141q0 91 -57 145q-59 56 -154 56
q-66 0 -110 -21q-43 -19 -80 -63l-264 32z" />
    <glyph glyph-name="six.tab" unicode="&#xff16;" horiz-adv-x="1228" 
d="M629 -27l-2 -4q-230 0 -387 148q-156 147 -156 362q0 91 35 207q37 117 96 207l348 543h379l-338 -486l43 6q14 2 37 2q203 0 348 -139q142 -139 142 -338q0 -211 -158 -360q-157 -148 -387 -148zM408 477l-2 -2q0 -92 61 -156q60 -63 158 -63q94 0 155 61q62 62 62 158
q0 94 -62 156q-61 61 -155 61q-95 0 -156 -61t-61 -154z" />
    <glyph glyph-name="seven.tab" unicode="&#xff17;" horiz-adv-x="1228" 
d="M754 1143h-645v297h1017v-256l-567 -1184h-362z" />
    <glyph glyph-name="eight.tab" unicode="&#xff18;" horiz-adv-x="1228" 
d="M1145 426l-4 4q0 -196 -148 -326q-147 -129 -383 -129t-383 129t-147 326q0 106 53 201q52 90 148 153q-65 56 -99 129q-35 78 -35 160q0 169 129 283q124 112 336 112t336 -112q129 -114 129 -283q0 -79 -35 -160q-35 -78 -98 -135q98 -60 148 -151q53 -95 53 -201z
M438 1047q0 -67 47 -111q46 -43 123 -43t123 43q47 44 47 111q0 66 -47 110q-46 43 -123 43t-123 -43q-47 -44 -47 -110zM397 446l-2 -2q0 -80 60 -137q58 -55 153 -55q96 0 154 55q59 56 59 137q0 86 -57 140q-58 55 -154 55q-95 0 -153 -55q-60 -57 -60 -138z" />
    <glyph glyph-name="nine.tab" unicode="&#xff19;" horiz-adv-x="1228" 
d="M600 1466v4q231 0 387 -147q158 -149 158 -362q0 -91 -35 -207q-37 -117 -96 -207l-348 -543h-379l338 485l-43 -6q-14 -2 -37 -2q-202 0 -348 140q-142 139 -142 337q0 212 158 361q156 147 387 147zM819 963h-2q0 91 -61 155t-156 64q-94 0 -156 -62q-61 -61 -61 -155
q0 -95 61 -156t156 -61q97 0 158 61t61 154z" />
    <glyph glyph-name="Lgeminada" horiz-adv-x="2183" 
d="M1057 0h-897v1440h325v-1143h572v-297zM1075 719v-2q0 -83 -59 -142q-57 -57 -148 -57q-90 0 -147 57t-57 142q0 90 57 147q60 60 147 60q90 0 148 -58q59 -59 59 -147zM2148 -2h-897v1440h326v-1143h571v-297z" />
    <glyph glyph-name="lgeminada" horiz-adv-x="1554" 
d="M137 1518h312v-1518h-312v1518zM983 719v-2q0 -83 -59 -142q-57 -57 -148 -57q-90 0 -147 57q-58 58 -58 142q0 89 58 147q60 60 147 60q90 0 148 -58q59 -59 59 -147zM1106 1516h311v-1518h-311v1518z" />
    <glyph glyph-name="caron.salt" horiz-adv-x="466" 
d="M385 1270l-125 -277h-180l104 230q-49 15 -82 59q-30 44 -30 96q0 71 49 117q53 47 123 47t123 -47q49 -46 49 -117q0 -21 -6 -45q-5 -19 -25 -63z" />
    <glyph glyph-name="commaaccent.salt" horiz-adv-x="405" 
d="M68 1382l116 240h162l-90 -182q45 -16 68 -54q24 -38 24 -81q0 -66 -43 -109t-108 -43q-64 0 -111 41q-43 40 -43 102q0 22 6 43q6 19 19 43z" />
    <glyph glyph-name="acute.case" horiz-adv-x="745" 
d="M383 1559h-295l168 305h301z" />
    <glyph glyph-name="grave.case" horiz-adv-x="745" 
d="M260 1559l-174 305h301l168 -305h-295z" />
    <glyph glyph-name="hungarumlaut.case" horiz-adv-x="772" 
d="M223 1864h283l-139 -305h-279zM575 1864h285l-139 -305h-281z" />
    <glyph glyph-name="circumflex.case" horiz-adv-x="778" 
d="M76 1559l203 305h346l204 -305h-272l-106 157l-107 -157h-268z" />
    <glyph glyph-name="caron.case" horiz-adv-x="778" 
d="M72 1864h268l106 -158l107 158h272l-204 -305h-347z" />
    <glyph glyph-name="breve.case" horiz-adv-x="792" 
d="M414 1538h4q-146 0 -246 92q-98 91 -98 228h227q0 -55 31 -91q30 -34 84 -34t84 34q30 35 30 91h228q0 -136 -99 -228q-100 -92 -245 -92z" />
    <glyph glyph-name="tilde.case" horiz-adv-x="804" 
d="M467 1798l-4 -4q26 -20 37 -25q12 -6 22 -6q22 0 31 19q11 25 16 65h205q-9 -150 -67 -223q-59 -74 -166 -74q-37 0 -70 13q-32 13 -74 49q-25 26 -39 30q-14 7 -26 7q-25 0 -37 -21q-14 -28 -21 -67h-206q9 151 67 227t166 76q37 0 78 -13q31 -8 88 -53z" />
    <glyph glyph-name="macron.case" horiz-adv-x="792" 
d="M680 1591h-594v209h594v-209z" />
    <glyph glyph-name="dieresis.case" horiz-adv-x="768" 
d="M391 1704h-2q0 -65 -43 -111q-42 -45 -106 -45q-67 0 -109 45q-43 46 -43 111t43 111q42 45 109 45q66 0 108 -45q43 -46 43 -111zM748 1704h-3q0 -65 -43 -111q-42 -45 -106 -45q-66 0 -111 45t-45 111t45 111t111 45q67 0 109 -45q43 -46 43 -111z" />
    <glyph glyph-name="dotaccent.case" horiz-adv-x="724" 
d="M424 1716h-2q0 -70 -49 -119t-119 -49t-119 49t-49 119t49 119t119 49q72 0 121 -49t49 -119z" />
    <glyph glyph-name="ring.case" horiz-adv-x="763" 
d="M557 1772l-2 2q0 -99 -72 -168q-71 -68 -176 -68q-106 0 -178 66q-70 64 -70 165q0 97 72 166q71 68 176 68q102 0 176 -68t74 -163zM231 1774h-2q0 -33 23 -56q22 -22 55 -22t55 22q23 23 23 56q0 32 -23 55q-22 22 -55 22t-55 -22q-21 -21 -21 -55z" />
    <glyph glyph-name="G.alt" horiz-adv-x="1644" 
d="M1178 510l-353 -4v250h731v-47q0 -331 -204 -535q-205 -205 -535 -205q-322 0 -532 213q-209 212 -209 535q0 319 213 532t540 213q269 0 469 -147t258 -389h-358q-47 109 -141 170t-226 61q-180 0 -296 -125q-117 -126 -117 -315q0 -196 112 -314q113 -122 289 -122
q130 0 225 59q94 60 134 170z" />
    <glyph glyph-name="Gcircumflex.alt" horiz-adv-x="1644" 
d="M444 1559l203 305h346l205 -305h-272l-107 157l-106 -157h-269zM1178 510l-353 -4v250h731v-47q0 -331 -204 -535q-205 -205 -535 -205q-322 0 -532 213q-209 212 -209 535q0 319 213 532t540 213q269 0 469 -147t258 -389h-358q-47 109 -141 170t-226 61
q-180 0 -296 -125q-117 -126 -117 -315q0 -196 112 -314q113 -122 289 -122q130 0 225 59q94 60 134 170z" />
    <glyph glyph-name="Gbreve.alt" horiz-adv-x="1644" 
d="M1178 510l-353 -4v250h731v-47q0 -331 -204 -535q-205 -205 -535 -205q-322 0 -532 213q-209 212 -209 535q0 319 213 532t540 213q269 0 469 -147t258 -389h-358q-47 109 -141 170t-226 61q-180 0 -296 -125q-117 -126 -117 -315q0 -196 112 -314q113 -122 289 -122
q130 0 225 59q94 60 134 170zM817 1534h4q-146 0 -246 92q-98 91 -98 227h228q0 -55 30 -90q30 -34 84 -34t84 34q31 36 31 90h227q0 -136 -98 -227q-100 -92 -246 -92z" />
    <glyph glyph-name="Gdotaccent.alt" horiz-adv-x="1644" 
d="M991 1716h-2q0 -70 -49 -119t-119 -49t-119 49t-49 119t49 119t119 49q72 0 121 -49t49 -119zM1176 510l-353 -4v250h731v-47q0 -331 -204 -535q-205 -205 -535 -205q-322 0 -532 213q-209 212 -209 535q0 319 213 532t540 213q269 0 469 -147t258 -389h-358
q-47 109 -141 170t-226 61q-181 0 -297 -125t-116 -315q0 -196 112 -314q113 -122 289 -122q130 0 225 59q94 60 134 170z" />
    <glyph glyph-name="uni0122.alt" horiz-adv-x="1644" 
d="M948 -354l-114 -242h-160l90 182q-48 16 -74 54q-26 33 -26 84q0 63 43 106t108 43q68 0 111 -43t43 -106q0 -21 -6 -39zM1182 508l-353 -4v250h732v-47q0 -330 -205 -535t-535 -205q-322 0 -532 213q-209 212 -209 535q0 319 213 532t541 213q270 0 469 -147
q200 -147 258 -389h-359q-47 109 -141 170t-225 61q-181 0 -297 -125q-117 -126 -117 -315q0 -195 113 -314q113 -122 288 -122q131 0 226 59q93 59 133 170z" />
    <glyph glyph-name="a.alt" horiz-adv-x="1343" 
d="M563 -27l-2 -4q-217 0 -356 154q-137 149 -137 391t139 399q138 156 356 156q110 0 197 -43t153 -127v145h293v-1042h-293v152q-66 -90 -153 -136q-86 -45 -197 -45zM393 516h-2q0 -112 72 -190q70 -76 184 -76t184 76q72 78 72 190q0 122 -69 191q-70 73 -185 73
q-114 0 -184 -73q-72 -78 -72 -191z" />
    <glyph glyph-name="agrave.alt" horiz-adv-x="1343" 
d="M563 -27l-2 -4q-217 0 -356 154q-137 149 -137 391t139 399q138 156 356 156q110 0 197 -43t153 -127v145h293v-1042h-293v152q-66 -90 -153 -136q-86 -45 -197 -45zM393 516h-2q0 -112 72 -190q70 -76 184 -76t184 76q72 78 72 190q0 122 -69 191q-70 73 -185 73
q-114 0 -184 -73q-72 -78 -72 -191zM537 1159l-175 305h302l167 -305h-294z" />
    <glyph glyph-name="aacute.alt" horiz-adv-x="1343" 
d="M838 1163h-295l168 305h301zM563 -27l-2 -4q-217 0 -356 154q-137 149 -137 391t139 399q138 156 356 156q110 0 197 -43t153 -127v145h293v-1042h-293v152q-66 -90 -153 -136q-86 -45 -197 -45zM393 516h-2q0 -112 72 -190q70 -76 184 -76t184 76q72 78 72 190
q0 122 -69 191q-70 73 -185 73q-114 0 -184 -73q-72 -78 -72 -191z" />
    <glyph glyph-name="acircumflex.alt" horiz-adv-x="1343" 
d="M313 1163l203 305h346l205 -305h-272l-107 158l-106 -158h-269zM563 -27l-2 -4q-217 0 -356 154q-137 149 -137 391t139 399q138 156 356 156q110 0 197 -43t153 -127v145h293v-1042h-293v152q-66 -90 -153 -136q-86 -45 -197 -45zM393 516h-2q0 -112 72 -190
q70 -76 184 -76t184 76q72 78 72 190q0 122 -69 191q-70 73 -185 73q-114 0 -184 -73q-72 -78 -72 -191z" />
    <glyph glyph-name="atilde.alt" horiz-adv-x="1343" 
d="M563 -27l-2 -4q-217 0 -356 154q-137 149 -137 391t139 399q138 156 356 156q110 0 197 -43t153 -127v145h293v-1042h-293v152q-66 -90 -153 -136q-86 -45 -197 -45zM393 516h-2q0 -112 72 -190q70 -76 184 -76t184 76q72 78 72 190q0 122 -69 191q-70 73 -185 73
q-114 0 -184 -73q-72 -78 -72 -191zM729 1401l-4 -4q26 -19 37 -25q12 -6 22 -6q22 0 31 18q11 25 16 66h205q-9 -150 -67 -223q-59 -74 -166 -74q-40 0 -70 12q-32 13 -74 49q-28 28 -38 31q-12 6 -27 6q-26 0 -37 -20q-12 -24 -20 -68h-207q9 152 67 228q57 75 166 75
q41 0 78 -12q31 -8 88 -53z" />
    <glyph glyph-name="adieresis.alt" horiz-adv-x="1343" 
d="M664 1311h-2q0 -64 -44 -111q-42 -45 -106 -45q-67 0 -109 45q-43 46 -43 111q0 64 43 110q42 45 109 45t109 -45q43 -46 43 -110zM1020 1311h-2q0 -65 -43 -111q-42 -45 -107 -45t-110 45t-45 111q0 65 45 110t110 45q67 0 109 -45q43 -46 43 -110zM559 -27l-2 -4
q-217 0 -356 154q-138 150 -138 391t140 399q138 156 356 156q110 0 197 -43t153 -127v145h293v-1042h-293v152q-66 -90 -153 -136q-86 -45 -197 -45zM389 516h-2q0 -112 72 -190q70 -76 184 -76t184 76q72 78 72 190q0 121 -70 191q-70 73 -184 73t-184 -73
q-72 -78 -72 -191z" />
    <glyph glyph-name="aring.alt" horiz-adv-x="1343" 
d="M936 1376l-2 2q0 -99 -72 -168q-70 -67 -176 -67q-107 0 -178 65q-70 64 -70 166q0 97 72 166q71 68 176 68q102 0 176 -68t74 -164zM610 1378h-2q0 -32 23 -55t55 -23t55 23t23 55q0 33 -23 56q-22 22 -55 22t-55 -22q-21 -21 -21 -56zM559 -25l-2 -4q-217 0 -356 154
q-138 150 -138 391t140 399q138 156 356 156q110 0 197 -43t153 -127v146h293v-1043h-293v152q-66 -90 -153 -136q-86 -45 -197 -45zM389 518h-2q0 -112 72 -190q70 -76 184 -76t184 76q72 78 72 190q0 121 -70 191q-70 73 -184 73t-184 -73q-72 -78 -72 -191z" />
    <glyph glyph-name="amacron.alt" horiz-adv-x="1343" 
d="M563 -27l-2 -4q-217 0 -356 154q-137 149 -137 391t139 399q138 156 356 156q110 0 197 -43t153 -127v145h293v-1042h-293v152q-66 -90 -153 -136q-86 -45 -197 -45zM393 516h-2q0 -112 72 -190q70 -76 184 -76t184 76q72 78 72 190q0 122 -69 191q-70 73 -185 73
q-114 0 -184 -73q-72 -78 -72 -191zM983 1194h-594v209h594v-209z" />
    <glyph glyph-name="abreve.alt" horiz-adv-x="1343" 
d="M563 -27l-2 -4q-217 0 -356 154q-137 149 -137 391t139 399q138 156 356 156q110 0 197 -43t153 -127v145h293v-1042h-293v152q-66 -90 -153 -136q-86 -45 -197 -45zM393 516h-2q0 -112 72 -190q70 -76 184 -76t184 76q72 78 72 190q0 122 -69 191q-70 73 -185 73
q-114 0 -184 -73q-72 -78 -72 -191zM684 1139h4q-146 0 -246 92q-98 91 -98 227h227q0 -54 31 -90q30 -35 84 -35t84 35q31 36 31 90h227q0 -136 -98 -227q-100 -92 -246 -92z" />
    <glyph glyph-name="aogonek.alt" horiz-adv-x="1343" 
d="M563 -27l-6 -6q-217 0 -356 154q-138 150 -138 391t140 399q138 156 356 156q110 0 197 -43t153 -127v145h293v-1042h-74q-106 -121 -141 -174q-33 -50 -33 -94q0 -33 23 -56q20 -20 61 -20q25 0 49 6t48 23v-201q-44 -26 -86 -37q-47 -12 -99 -12q-107 0 -174 61
t-67 166q0 70 41 141q44 76 163 201v150q-66 -90 -153 -136q-86 -45 -197 -45zM389 514h-2q0 -112 72 -190q70 -76 184 -76t184 76q72 78 72 190q0 121 -70 191q-70 73 -184 73t-184 -73q-72 -78 -72 -191z" />
    </font>
</defs>
</svg>
